Quick Browse
Movies
TV shows
Music
Games
Applications
Anime
Other
Facebook
Advertising

Friends
Torrent Download
Movie4u
1337x.to
Torrent Downloads




Hugo 2011 BlurayRip mkv x264 ac3 [Pioneer]


    Seeders : 1      Leechers : 0
Hash :BF9F37DA5BA41EDD59D79DF7003527FE0F6C02C1
Added :1 Year+ by Pioneer42Verified torrent uploader in Movies
Size :2.45 GB
Stream :WATCH ONLINE @ Movie4u


Hugo 2011 BlurayRip mkv x264 ac3 [Pioneer]
Free and Fast Download with Usenet 300GB+ free







Trackers List

Tracker NameLast CheckStatusSeedersLeechers




Torrent File Content (5 files)


Hugo 2012 BlurayRip mkv x264 ac3 [Pioneer]
     Hugo 2012 BlurayRip mkv x264 ac3 [Pioneer].mkv -
2.44 GB

     Torrent downloaded from Silvertorrent.org.txt -
86 bytes

     Torrent Downloaded From ExtraTorrent.com.txt -
339 bytes

    sub
          Hugo 2012 BlurayRip mkv x264 ac3 [Pioneer].sub -
6.75 MB

          Hugo 2012 BlurayRip mkv x264 ac3 [Pioneer].idx -
52.05 KB



Description



http://img145.imageshack.us/img145/1742/hugod.jpg


Set in 1930s Paris, an orphan who lives in the walls of a train station is wrapped up in a mystery involving his late father and an automaton.

Directed by: Martin Scorsese

Starring: Asa Butterfield, Ben Kingsley, Chloƫ Grace Moretz, Sacha Baron Cohen, Helen McCrory, Richard Griffiths, Frances de la Tour, Ray Winstone, Emily Mortimer, Jude Law, Christopher Lee

http://uk.imdb.com/title/tt0970179/?ref_=fn_al_tt_1

http://www.youtube.com/watch?v=hR-kP-olcpM

General
Format : Matroska
Format version : Version 2
File size : 2.44 GiB
Duration : 2h 6mn
Overall bit rate : 2 776 Kbps
Movie name : Hugo 2012 BlurayRip mkv x264 ac3 [Pioneer]
Writing library : libebml v0.7.8 + libmatroska v0.8.1

Video
ID : 1
Format : AVC
Format/Info : Advanced Video Codec
Format profile : [email protected]
Format settings, CABAC : Yes
Format settings, ReFrames : 2 frames
Codec ID : V_MPEG4/ISO/AVC
Duration : 2h 6mn
Bit rate : 2 273 Kbps
Width : 1 920 pixels
Height : 1 054 pixels
Display aspect ratio : 1.85:1
Frame rate mode : Constant
Frame rate : 23.976 fps
Color space : YUV
Chroma subsampling : 4:2:0
Bit depth : 8 bits
Scan type : Progressive
Bits/(Pixel*Frame) : 0.047
Stream size : 2.00 GiB (82%)
Writing library : x264 core
Default : Yes
Forced : No
Color primaries : BT.709
Transfer characteristics : BT.709
Matrix coefficients : BT.709

Audio
ID : 2
Format : AC-3
Format/Info : Audio Coding 3
Mode extension : CM (complete main)
Format settings, Endianness : Big
Codec ID : A_AC3
Duration : 2h 6mn
Bit rate mode : Constant
Bit rate : 448 Kbps
Channel(s) : 6 channels
Channel positions : Front: L C R, Side: L R, LFE
Sampling rate : 48.0 KHz
Bit depth : 16 bits
Compression mode : Lossy
Stream size : 404 MiB (16%)
Default : Yes
Forced : No

http://img845.imageshack.us/img845/6003/vlcsnap2012122612h56m13.png

http://img707.imageshack.us/img707/8007/vlcsnap2012122612h55m58.png

http://img5.imageshack.us/img5/9238/vlcsnap2012122612h56m53.png

http://img16.imageshack.us/img16/2853/vlcsnap2012122612h57m11.png

http://img69.imageshack.us/img69/9900/vlcsnap2012122612h57m55.png

http://img94.imageshack.us/img94/3896/vlcsnap2012122612h58m27.png

http://img545.imageshack.us/img545/8951/vlcsnap2012122612h59m42.png

Related torrents

Torrent NameAddedSizeSeedLeechHealth
1 Year+ - in Movies3.2 GB00
1 Year+ - in Movies3.27 GB41
1 Year+ - in Movies3.96 GB00
1 Year+ - in Movies3.12 GB112
1 Year+ - in Movies6.24 GB229

Comments (0 Comments)




Please login or create a FREE account to post comments

Latest Searches

| eros ramazzotti ci parliamo da grandi | Kagney Linn Karter dicked down | baby doll video song 5 1 | The Many Adventures of Winnie the Pooh ita | Jung 2 | Armin van Buuren A State of Trance 651 690 SBD 2014 MP3 | first quest helen gets her rear hole porked hd 720p | Taylor J A | M S Dhoni The Untold Story 2016 hdrip esubs | Suicide Squad web dl evo |