Quick Browse
Movies
TV shows
Music
Games
Applications
Anime
Other
Facebook
Advertising

Friends
Torrent Download
Movie4u
1337x.to
Torrent Downloads




Verified torrent Hum Dil De Chuke Sanam ( 1999) Hindi DvD - 2CD - Rip - Xvid - By - Punjabi_Boy


    Seeders : 0      Leechers : 0

Trackers List

Tracker NameLast CheckStatusSeedersLeechers
udp://tracker.coppersurfer.tk:80Last Monthsuccess00
udp://tracker.ilibr.org:6969/announceLast Monthsuccess00
http://torrent-tracker.ru/announce.phpLast Monthsuccess00
udp://ipv4.tracker.harry.lu:80/announceLast Monthsuccess00
udp://9.rarbg.com:2710/announceLast Monthsuccess00
http://tracker.trackerfix.com/announceLast Monthsuccess00




Torrent File Content (1 file)


Hum Dil De Chuke Sanam ( 1999) DvD - 2CD - Rip - Xvid - By - Punjabi_Boy
     Hum Dil De Chuke Sanam ( 1999) DvD - 2CD - Rip - By - Punjabi_Boy.avi -
1.37 GB



Description





http://i887.photobucket.com/albums/ac76/desiess/HumDilDeChukeSanam1999.jpg


[font=Georgia]General
Ripper : Rahul
Complete name : Hum Dil De Chuke Sanam ( 1999)
Format : AVI
Format/Info : Audio Video Interleave
File size : 1.37 GiB
Duration : 3h 6mn
Overall bit rate : 1 045 Kbps
Writing application : VirtualDubMod 1.5.10.2 (build 2540/release)
Writing library : VirtualDub build 32839/release

Video
ID : 0
Format : MPEG-4 Visual
Format profile : Advanced [email protected]
Format settings, BVOP : Yes
Format settings, QPel : No
Format settings, GMC : No warppoints
Format settings, Matrix : Default (H.263)
Muxing mode : Packed bitstream
Codec ID : XVID
Codec ID/Hint : XviD
Duration : 3h 6mn
Bit rate : 904 Kbps
Width : 640 pixels
Height : 304 pixels
Display aspect ratio : 2.2:1
Frame rate : 29.970 fps
Color space : YUV
Chroma subsampling : 4:2:0
Bit depth : 8 bits
Scan type : Progressive
Bits/(Pixel*Frame) : 0.155
Stream size : 1.18 GiB (86%)
Writing library : XviD 1.0.3 (UTC 2004-12-20)

Audio
ID : 1
Format : MPEG Audio
Format version : Version 1
Format profile : Layer 3
Mode : Joint stereo
Mode extension : MS Stereo
Codec ID : 55
Codec ID/Hint : MP3
Duration : 3h 6mn
Bit rate mode : Variable
Bit rate : 128 Kbps
Channel(s) : 2 channels
Sampling rate : 48.0 KHz
Stream size : 170 MiB (12%)
Alignment : Aligned on interleaves
Interleave, duration : 24 ms (0.72 video frame)
Interleave, preload duration : 480 ms
Writing library : LAME3.90.
[/font]

http://img69.imageshack.us/img69/9499/116jf.jpg

http://img713.imageshack.us/img713/4131/217yn.jpg

http://img576.imageshack.us/img576/9261/313u.jpg

http://img831.imageshack.us/img831/1829/18395781.jpg

http://img684.imageshack.us/img684/9163/19578252.jpg

http://img268.imageshack.us/img268/1134/62598247.jpg

http://img203.imageshack.us/img203/9427/35078669.jpg

http://img225.imageshack.us/img225/1678/71837351.jpg


Related torrents

Torrent NameAddedSizeSeedLeechHealth
1 Year+ - in Movies1.2 GB00
1 Year+ - in Movies1.2 GB00
1 Year+ - in Movies1.2 GB22
1 Year+ - in Movies775.5 MB10
1 Year+ - in Movies981.3 MB43

Comments (0 Comments)




Please login or create a FREE account to post comments

Latest Searches

| christmas fireplace video | T i 5000 | Malayalam mp3 songs download | Jive Bunny Christmas Party | Steven Campbell Screw The Galaxy Hard Luck Hank | eruption the untold story of mount st helens | love x2 | shared teen anal | elm street collection 1080p | Honey FoXXX Mike Panic |