Quick Browse
Movies
TV shows
Music
Games
Applications
Anime
Other
Facebook
Advertising

Friends
Torrent Download
Movie4u
1337x.to
Torrent Downloads




Hurricane.Season.2009.DVDRip.Xvid.TA


    Seeders : 1      Leechers : 0
Hash :EBA20C572AB87675E3EC460ED27B79ACF43B7237
Added :1 Year+ in Movies
Size :737.32 MB
Stream :WATCH ONLINE @ Movie4u


Hurricane.Season.2009.DVDRip.Xvid.TA
Free and Fast Download with Usenet 300GB+ free







Trackers List

Tracker NameLast CheckStatusSeedersLeechers




Torrent File Content (53 files)


Hurricane.Season.2009.DVDRip.Xvid.TA
     Hurricane.Season.2009.DVDRip.Xvid.TA.nfo -
2.91 KB

     Hurricane.Season.2009.DVDRip.Xvid.TA.part01.rar -
13.97 MB

     Hurricane.Season.2009.DVDRip.Xvid.TA.part02.rar -
13.97 MB

     Hurricane.Season.2009.DVDRip.Xvid.TA.part03.rar -
13.97 MB

     Hurricane.Season.2009.DVDRip.Xvid.TA.part04.rar -
13.97 MB

     Hurricane.Season.2009.DVDRip.Xvid.TA.part05.rar -
13.97 MB

     Hurricane.Season.2009.DVDRip.Xvid.TA.part06.rar -
13.97 MB

     Hurricane.Season.2009.DVDRip.Xvid.TA.part07.rar -
13.97 MB

     Hurricane.Season.2009.DVDRip.Xvid.TA.part08.rar -
13.97 MB

     Hurricane.Season.2009.DVDRip.Xvid.TA.part09.rar -
13.97 MB

     Hurricane.Season.2009.DVDRip.Xvid.TA.part10.rar -
13.97 MB

     Hurricane.Season.2009.DVDRip.Xvid.TA.part11.rar -
13.97 MB

     Hurricane.Season.2009.DVDRip.Xvid.TA.part12.rar -
13.97 MB

     Hurricane.Season.2009.DVDRip.Xvid.TA.part13.rar -
13.97 MB

     Hurricane.Season.2009.DVDRip.Xvid.TA.part14.rar -
13.97 MB

     Hurricane.Season.2009.DVDRip.Xvid.TA.part15.rar -
13.97 MB

     Hurricane.Season.2009.DVDRip.Xvid.TA.part16.rar -
13.97 MB

     Hurricane.Season.2009.DVDRip.Xvid.TA.part17.rar -
13.97 MB

     Hurricane.Season.2009.DVDRip.Xvid.TA.part18.rar -
13.97 MB

     Hurricane.Season.2009.DVDRip.Xvid.TA.part19.rar -
13.97 MB

     Hurricane.Season.2009.DVDRip.Xvid.TA.part20.rar -
13.97 MB

     Hurricane.Season.2009.DVDRip.Xvid.TA.part21.rar -
13.97 MB

     Hurricane.Season.2009.DVDRip.Xvid.TA.part22.rar -
13.97 MB

     Hurricane.Season.2009.DVDRip.Xvid.TA.part23.rar -
13.97 MB

     Hurricane.Season.2009.DVDRip.Xvid.TA.part24.rar -
13.97 MB

     Hurricane.Season.2009.DVDRip.Xvid.TA.part25.rar -
13.97 MB

     Hurricane.Season.2009.DVDRip.Xvid.TA.part26.rar -
13.97 MB

     Hurricane.Season.2009.DVDRip.Xvid.TA.part27.rar -
13.97 MB

     Hurricane.Season.2009.DVDRip.Xvid.TA.part28.rar -
13.97 MB

     Hurricane.Season.2009.DVDRip.Xvid.TA.part29.rar -
13.97 MB

     Hurricane.Season.2009.DVDRip.Xvid.TA.part30.rar -
13.97 MB

     Hurricane.Season.2009.DVDRip.Xvid.TA.part31.rar -
13.97 MB

     Hurricane.Season.2009.DVDRip.Xvid.TA.part32.rar -
13.97 MB

     Hurricane.Season.2009.DVDRip.Xvid.TA.part33.rar -
13.97 MB

     Hurricane.Season.2009.DVDRip.Xvid.TA.part34.rar -
13.97 MB

     Hurricane.Season.2009.DVDRip.Xvid.TA.part35.rar -
13.97 MB

     Hurricane.Season.2009.DVDRip.Xvid.TA.part36.rar -
13.97 MB

     Hurricane.Season.2009.DVDRip.Xvid.TA.part37.rar -
13.97 MB

     Hurricane.Season.2009.DVDRip.Xvid.TA.part38.rar -
13.97 MB

     Hurricane.Season.2009.DVDRip.Xvid.TA.part39.rar -
13.97 MB

     Hurricane.Season.2009.DVDRip.Xvid.TA.part40.rar -
13.97 MB

     Hurricane.Season.2009.DVDRip.Xvid.TA.part41.rar -
13.97 MB

     Hurricane.Season.2009.DVDRip.Xvid.TA.part42.rar -
13.97 MB

     Hurricane.Season.2009.DVDRip.Xvid.TA.part43.rar -
13.97 MB

     Hurricane.Season.2009.DVDRip.Xvid.TA.part44.rar -
13.97 MB

     Hurricane.Season.2009.DVDRip.Xvid.TA.part45.rar -
13.97 MB

     Hurricane.Season.2009.DVDRip.Xvid.TA.part46.rar -
13.97 MB

     Hurricane.Season.2009.DVDRip.Xvid.TA.part47.rar -
13.97 MB

     Hurricane.Season.2009.DVDRip.Xvid.TA.part48.rar -
13.97 MB

     Hurricane.Season.2009.DVDRip.Xvid.TA.part49.rar -
13.97 MB



Description




Hurricane.Season.2009.DVDRip.Xvid.TA

http://i48.tinypic.com/qx3xoh.jpg



http://www.imdb.com/title/tt1172998/

A year after Hurricane Katrina, Al Collins, a high school basketball coach in Marrero, Louisiana,

assembles a team of players who had previously attended five different schools before the disaster

and leads them on the path to the state championships.


Starring: Forest Whitaker, Isaiah Washington, Taraji P. Henson, Jackie Long, Eric Hill (V)

Notes: IMDB lists this movie as "In Production" and is Also Known As: Patriots (USA) Working title.



Source : THS (Thanks)

General
Complete name : Hurricane.Season.2009.DVDRip.Xvid.TA.avi
Format : AVI
Format/Info : Audio Video Interleave
File size : 716 MiB
Duration : 1h 42mn
Overall bit rate : 979 Kbps
Writing library : VirtualDub build 32661/release

Video
ID : 0
Format : MPEG-4 Visual
Format profile : [email protected]
Format settings, BVOP : Yes
Format settings, QPel : No
Format settings, GMC : No warppoints
Format settings, Matrix : Custom
Muxing mode : Packed bitstream
Codec ID : XVID
Codec ID/Hint : XviD
Duration : 1h 42mn
Bit rate : 839 Kbps
Width : 720 pixels
Height : 352 pixels
Display aspect ratio : 2.045
Frame rate : 29.970 fps
Resolution : 24 bits
Colorimetry : 4:2:0
Scan type : Progressive
Bits/(Pixel*Frame) : 0.110
Stream size : 614 MiB (86%)
Writing library : XviD 1.2.1 (UTC 2008-12-04)

Audio
ID : 1
Format : MPEG Audio
Format version : Version 1
Format profile : Layer 3
Codec ID : 55
Codec ID/Hint : MP3
Duration : 1h 42mn
Bit rate mode : Constant
Bit rate : 128 Kbps
Channel(s) : 2 channels
Sampling rate : 44.1 KHz
Resolution : 16 bits
Stream size : 93.6 MiB (13%)
Alignment : Split accross interleaves
Interleave, duration : 33 ms (1.00 video frame)
Interleave, preload duration : 500 ms
Writing library : LAME3.96


Screens:

http://i45.tinypic.com/11v6xci.jpg

http://i50.tinypic.com/28wo38o.jpg

http://i48.tinypic.com/65ba.jpg

http://i47.tinypic.com/33a9afl.jpg

Related torrents

Torrent NameAddedSizeSeedLeechHealth
1 Year+ - in Movies744.58 MB00
6 months ago - in Other1.95 GB00
6 months ago - in Movies1.24 GB40
6 months ago - in Movies1.29 GB00
1 Year+ - in TV shows5.42 GB00

Comments (0 Comments)




Please login or create a FREE account to post comments

Latest Searches

| army sultan ned shepard nervo feat omarion | casual sex elena | mick blues best day ever blue maestro claudio evil angel 720p web dl split scenes | cape fear 1991 subs | Lets Try Anal Abella Danger | Sailor Moon Crystal 08 | Mr lego | R E M everybody hurts | funkymix december | T i feat feature |