Quick Browse
Movies
TV shows
Music
Games
Applications
Anime
Other

Donate and Support

Friends
Torrents.me
Torrent Download
Free Movies
1337x
RARBG
Torrent Downloads

Verified torrent I Am Number Four (2011) DVDRip XviD


    Seeders : 0      Leechers : 1
Hash :1E92A3EB2DBA6073EB351DEB66B98D254081C26F
Added :1 Year+ by milsanaup1Verified torrent uploader in Movies
Size :711.08 MB
Stream :Watch Full Movies Online @ Movie4u
Share :


I Am Number Four (2011) DVDRip XviD
Anonymous and Direct Download 300GB+ free







Warning! Do not Download Torrents Without a VPN!
Your IP Address is .   And Location is
Your Internet Provider and Government can track your torrent Activity!  Hide your IP ADDRESS with a VPN!
We Strongly Recommend Using SpyOFF Torrent VPN to Anonymize your Torrenting. It's FREE For 15 Days!

Note :

Please Update (Trackers Info) Before Downloading Torrents to See Updated Seeders And Leechers for Batter Download Speed.

Trackers List

Tracker NameLast CheckStatusSeedersLeechers




Torrent File Content (4 files)


I.Am.Number.Four.DVDRip.XviD
     I Am Number Four DVDRip Xvid.avi -
699.49 MB

     sample.avi -
11.05 MB

     screencaps.jpeg -
552.83 KB

     Help.txt -
1.32 KB



Description



http://www.filmupdates.nl/wp-content/uploads/2011/03/I-am-number-four-poster.jpg


http://www.filmupdates.nl/wp-content/uploads/2011/03/I-am-number-four-poster.jpg


I Am Number Four (2011) DVDRip XviD
DVDRip XviD| English | AVI | 1h 49 mins | 624x336
Mp3 128kbs |700Mb
Genre: Action | Sci-Fi | Thriller
IMDB

Format : AVI
Format/Info : Audio Video Interleave
Format profile : OpenDML
File size : 1.56 GiB
Duration : 1h 49mn
Overall bit rate : 2 040 Kbps
Writing application : VirtualDubMod 1.5.10.2 (build 2542/release)
Writing library : VirtualDubMod build 2542/release
Original source form : MAX TORRENTZ
Copyright : SIGISMUNT

Video
ID : 0
Format : MPEG-4 Visual
Format profile : [email protected]
Format settings, BVOP : Yes
Format settings, QPel : No
Format settings, GMC : No warppoints
Format settings, Matrix : Custom
Codec ID : XVID
Codec ID/Hint : XviD
Duration : 1h 49mn
Bit rate : 1 650 Kbps
Width : 720 pixels
Height : 384 pixels
Display aspect ratio : 1.875
Frame rate : 23.976 fps
Resolution : 24 bits
Colorimetry : 4:2:0
Scan type : Progressive
Bits/(Pixel*Frame) : 0.249
Stream size : 1.26 GiB (81%)
Writing library : XviD 58

Audio
ID : 1
Format : AC-3
Format/Info : Audio Coding 3
Codec ID : 2000
Duration : 1h 49mn
Bit rate mode : Constant
Bit rate : 384 Kbps
Channel(s) : 6 channels
Channel positions : Front: L C R, Surround: L R, LFE
Sampling rate : 48.0 KHz
Stream size : 301 MiB (19%)
Alignment : Aligned on interleaves
Interleave, duration : 64 ms (1.53 video frames)
Interleave, preload duration : 192 ms



John is an extraordinary teen, masking his true identity and passing as a typical
high school student to elude a deadly enemy seeking to destroy him. Three like him
have already been killed ... he is Number Four.

Related torrents

Torrent NameAddedSizeSeedLeechHealth
20 days ago - in Movies695.46 MB00
7 months ago - in Movies3.1 GB5355
7 months ago - in Movies910.62 MB3935
1 Year+ - in Movies611.8 MB00
Verified torrent
1 Year+ - in Movies8.66 GB57
1 Year+ - in Other919.69 MB00

Comments (0 Comments)




Please login or create a FREE account to post comments

Latest Searches

| wwe 2017 06 26 | mussolini ultimo atto 1974 | no where without you | Madox | Twerkin ester | Hal leonard | BigButtsLikeItBig Claire Dames Resisting Anal Arrest Pt 2 Anal June 15 2009 | B G fired up | backroom casting molly | kixx dont close your |