Quick Browse
Movies
TV shows
Music
Games
Applications
Anime
Other

Latest Articles

Friends
Torrents.me
Torrent Download
Free Movies
1337x
RARBG
Torrent Downloads

Verified torrent I Borgia S01E01-02 iTALiAN HDTV XviD-SiD-[IDN_CREW]


    Seeders : 0      Leechers : 0

Hash :2EBC05BA145B0235C7B6439F40326A342C48C9D0
Added :1 Year+ by manny02Verified torrent uploader in TV shows
Size :800.42 MB
Stream :Watch Online Full Movie @ Movie4u
Share :









Warning! Do not Download Torrents Without a VPN!
Your IP Address is .   And Location is
Your Internet Provider and Government can track your torrent Activity!  Hide your IP ADDRESS with a VPN!
We Strongly Recommend Using SpyOFF Torrent VPN to Anonymize your Torrenting. It's FREE for 15 Days!

Note :

Please Update (Trackers Info) Before Downloading Torrents to See Updated Seeders And Leechers for Batter Download Speed.

Trackers List

Tracker NameLast CheckStatusSeedersLeechers




Torrent File Content (3 files)


I.Borgia.S01E01-02.iTALiAN.HDTV.XviD-SiD-[IDN_CREW]
     I.Borgia.S01E01.iTALiAN.HDTV.XviD-SiD.avi -
400.24 MB

     I.Borgia.S01E02.iTALiAN.HDTV.XviD-SiD.avi -
400.18 MB

     IDN_CREW Leggimi.txt -
294 bytes



Description



General
Complete name : C:\Users\Manny\Documents\Azureus Downloads\I.Borgia.S01E01-02.iTALiAN.HDTV.XviD-SiD-[IDN_CREW]\I.Borgia.S01E01.iTALiAN.HDTV.XviD-SiD.avi
Format : AVI
Format/Info : Audio Video Interleave
File size : 400 MiB
Duration : 54mn 33s
Overall bit rate : 1 026 Kbps
Writing application : VirtualDubMod 1.5.10.2 (build 2540/release)
Writing library : VirtualDubMod build 2540/release

Video
Format : MPEG-4 Visual
Format profile : Streaming [email protected]
Format settings, BVOP : Yes
Format settings, QPel : No
Format settings, GMC : No warppoints
Format settings, Matrix : Default
Muxing mode : Packed bitstream
Codec ID : XVID
Codec ID/Hint : XviD
Duration : 54mn 33s
Bit rate : 850 Kbps
Width : 624 pixels
Height : 352 pixels
Display aspect ratio : 16/9
Frame rate : 25.000 fps
Resolution : 24 bits
Colorimetry : 4:2:0
Scan type : Progressive
Bits/(Pixel*Frame) : 0.155
Stream size : 331 MiB (83%)
Writing library : XviD 64

Audio
Format : MPEG Audio
Format version : Version 1
Format profile : Layer 3
Codec ID : 55
Codec ID/Hint : MP3
Duration : 54mn 33s
Bit rate mode : Variable
Bit rate : 163 Kbps
Nominal bit rate : 160 Kbps
Channel(s) : 2 channels
Sampling rate : 48.0 KHz
Resolution : 16 bits
Stream size : 63.7 MiB (16%)
Alignment : Aligned on interleaves
Interleave, duration : 24 ms (0.60 video frame)
Interleave, preload duration : 479 ms
Writing library : LAME3.90.
Encoding settings : ABR Ringraziamenti a Sid per la realizzazione

Related torrents

Torrent NameAddedSizeSeedLeechHealth
1 Year+ - in TV shows699.72 MB11
4 months ago - in Movies932.03 MB00
Verified torrent
1 Year+ - in TV shows1.66 GB45
Verified torrent
1 Year+ - in TV shows1.17 GB10
Verified torrent
1 Year+ - in TV shows1.17 GB00

Note :

Feel free to post any comments about this torrent, including links to Subtitle, samples, screenshots, or any other relevant information. Please Dont Download anything from Comments, And Dont Post Links to Streaming Sites like Fmovies, Xmovies8, 123Movies, GoMovies, CMovieshd, Solarmovie, Watchfree, Putlockers, GoStream, m4ufree etc.

Comments (0 Comments)




Please login or create a FREE account to post comments

Latest Searches

| 69 Femdom Cumshots | 20 Years Old Gets Fucked By The Driver | The Apprentice UK S13E12 Interviews | Laurie Anderson Big Science | anal buffet jillian | God s of thunder | Blindspot S03E02 3 | Black Gold S02E02 xvid clarkadamc | knightfall s01e02 mkv | i choose you ink |