Quick Browse
Movies
TV shows
Music
Games
Applications
Anime
Other
Facebook
Advertising

Friends
Torrent Download
Movie4u
1337x.to
Torrent Downloads




Verified torrent I Don't Know How She Does It 2011 R5 RiP XviD - VISUALiSE


    Seeders : 1      Leechers : 2
Hash :016DD731CC5C09EC042DF401083FE67F2B144DDD
Added :1 Year+ by memory100Verified torrent uploader in Movies
Size :977.58 MB
Stream :WATCH ONLINE @ Movie4u


I Don't Know How She Does It 2011 R5 RiP XviD - VISUALiSE
Free and Fast Download with Usenet 300GB+ free







Trackers List

Tracker NameLast CheckStatusSeedersLeechers




Torrent File Content (13 files)


I Don't Know How She Does It 2011 R5RiP XviD - VISUALiSE
     1.png -
437.2 KB

     2.png -
503.82 KB

     3.png -
342.7 KB

     4.png -
541.21 KB

     5.png -
493.89 KB

     HDSceneRG.txt -
115 bytes

     I Don't Know How She Does It 2011 R5RiP XviD - VISUALiSE.avi -
960.71 MB

     I Don't Know How She Does It 2011 R5RiP XviD - VISUALiSE.nfo -
3.63 KB

     Torrent downloaded from Demonoid.me.txt -
46 bytes

     Torrent downloaded from Suprnova.me.txt -
42 bytes

     att-networks.com.txt -
39 bytes

     sample.avi -
14.6 MB

     sceneunderground.org.txt -
77 bytes



Description



http://img689.imageshack.us/img689/6973/idont.jpg

[code]
iNFO

Title: I Don't Know How She Does It 2011 R5RiP XviD - VISUALiSE
Format: XViD
Language: English
Subtitles: No

iMDB: http://www.imdb.com/title/tt1742650/

Plot:
A comedy centered on the life of Kate Reddy,
a finance executive who is the breadwinner
for her husband and two kids.

Sources:
Video: Relizlab DVDR - big thanks
Audio: Relizlab DVDR - big thanks

Release Notes:
Ok here we are with another release this time bringing you.....
I Don't Know How She Does It 2011 R5RiP XviD - VISUALiSE
Big thanks goes to relizlab for the DVD9 love you guys long time lol
inwhich contained studio english so we have a very nice R5Rip of
this release to share.

Info:
ID : 0
Format : MPEG-4 Visual
Format profile : Advanced [email protected]
Format settings, BVOP : 2
Format settings, QPel : No
Format settings, GMC : No warppoints
Format settings, Matrix : Default (MPEG)
Codec ID : XVID
Codec ID/Hint : XviD
Duration : 1h 25mn
Bit rate : 1 439 Kbps
Width : 720 pixels
Height : 400 pixels
Display aspect ratio : 16:9
Frame rate : 29.970 fps
Color space : YUV
Chroma subsampling : 4:2:0
Bit depth : 8 bits
Scan type : Progressive
Compression mode : Lossy
Bits/(Pixel*Frame) : 0.167
Stream size : 883 MiB (92%)
Writing library : XviD 1.2.1 (UTC 2008-12-04)

ID : 1
Format : MPEG Audio
Format version : Version 1
Format profile : Layer 3
Codec ID : 55
Codec ID/Hint : MP3
Duration : 1h 25mn
Bit rate mode : Constant
Bit rate : 112 Kbps
Channel(s) : 2 channels
Sampling rate : 48.0 KHz
Compression mode : Lossy
Delay relative to video : 33ms
Stream size : 68.7 MiB (7%)
Alignment : Aligned on interleaves
Interleave, duration : 24 ms (0.72 video frame)
Interleave, preload duration : 504 ms
Writing library : LAME3.98.4
[/code]
Screens:
http://img80.imageshack.us/img80/4231/60313852.png

http://img171.imageshack.us/img171/5655/92114967.png

http://img638.imageshack.us/img638/43/95585654.png

http://img257.imageshack.us/img257/7536/53323686.png

Related torrents

Torrent NameAddedSizeSeedLeechHealth
1 Year+ - in Movies1 GB012
1 Year+ - in Movies1.45 GB08
1 Year+ - in Movies744.07 MB03
1 Year+ - in Movies1.06 GB00
1 Year+ - in Movies704.66 MB21

Comments (0 Comments)




Please login or create a FREE account to post comments

Latest Searches

| unicorn gundam 16 | magnifici sette italian | shameless season 8 full | Back in Crime 2013 720p BluRay DD5 1 x264 EbP | everything jody watley | pirati dei caraibi 2 ita 2006 | the grand tour s01e01 mkv | swish mix 11 | cent 6 0 | Kagney Linn Karter massively dicked down |