Quick Browse
Movies
TV shows
Music
Games
Applications
Anime
Other
Facebook
Advertising

Friends
Torrent Download
Movie4u
1337x.to
Torrent Downloads




Verified torrent I Dont Know How She Does It 2011 R5 DVDRip XVID AC3 HQ Hive-CM8


    Seeders : 1      Leechers : 1

Trackers List

Tracker NameLast CheckStatusSeedersLeechers




Torrent File Content (8 files)


I.Dont.Know.How.She.Does.It.2011.R5.DVDRip.XVID.AC3.HQ.Hive-CM8
     HDSceneRG.txt -
115 bytes

     I.Dont.Know.How.She.Does.It.2011.R5.DVDRip.XVID.AC3.HQ.Hive-CM8.avi -
1.35 GB

     I.Dont.Know.How.She.Does.It.2011.R5.DVDRip.XVID.AC3.HQ.Hive-CM8.nfo -
4.12 KB

     Torrent downloaded from Demonoid.me.txt -
46 bytes

     Torrent downloaded from Suprnova.me.txt -
42 bytes

     att-networks.com.txt -
39 bytes

     sample.avi -
12.16 MB

     sceneunderground.org.txt -
77 bytes



Description



http://img440.imageshack.us/img440/6973/idont.jpg

[code]
I.Dont.Know.How.She.Does.It.2011.R5.DVDRip.XVID.AC3.HQ.Hive-CM8


Thx Hive

CM8 Doing It Right The First Time


Source: Russian DVD-R

Ja.ne.znaju.kak.ona.delaet.jeto.2011.D.DVD

Encode:

DVD had english audio on it and great quality.
added brightness,sharpness,rgb and denoise
got very nice
enjoy

Video: 720x400 @bitrate 18000 2pass
Audio: English AC3 5.1 @448
Sample: yes included


http://www.imdb.com/title/tt1742650/


General
Complete name : I.Dont.Know.How.She.Does.It.2011.R5.DVDRip.XVID.AC3.HQ.Hive-CM8.avi
Format : AVI
Format/Info : Audio Video Interleave
File size : 1.35 GiB
Duration : 1h 25mn
Overall bit rate : 2 256 Kbps
Writing application : Nandub v1.0rc2
Writing library : Nandub build 1853/release

Video
ID : 0
Format : MPEG-4 Visual
Format profile : Advanced [email protected]
Format settings, BVOP : 2
Format settings, QPel : Yes
Format settings, GMC : No warppoints
Format settings, Matrix : Default (H.263)
Muxing mode : Packed bitstream
Codec ID : XVID
Codec ID/Hint : XviD
Duration : 1h 25mn
Bit rate : 1 798 Kbps
Width : 720 pixels
Height : 400 pixels
Display aspect ratio : 16:9
Frame rate : 25.000 fps
Color space : YUV
Chroma subsampling : 4:2:0
Bit depth : 8 bits
Scan type : Progressive
Compression mode : Lossy
Bits/(Pixel*Frame) : 0.250
Stream size : 1.08 GiB (80%)
Writing library : XviD 1.2.1 (UTC 2008-12-04)

Audio
ID : 1
Format : AC-3
Format/Info : Audio Coding 3
Mode extension : CM (complete main)
Codec ID : 2000
Duration : 1h 25mn
Bit rate mode : Constant
Bit rate : 448 Kbps
Channel(s) : 6 channels
Channel positions : Front: L C R, Side: L R, LFE
Sampling rate : 48.0 KHz
Bit depth : 16 bits
Compression mode : Lossy
Stream size : 275 MiB (20%)
Alignment : Split accross interleaves
Interleave, duration : 40 ms (1.00 video frame)
Interleave, preload duration : 500 ms


Plot:

A comedy centered on the life of Kate Reddy, a finance executive who is the breadwinner for her husband and two kids.


Cast:

Sarah Jessica Parker ... Kate Reddy
Pierce Brosnan ... Jack Abelhammer
Greg Kinnear ... Richard Reddy
Christina Hendricks ... Allison Henderson
Kelsey Grammer ... Clark Cooper

[/code]
Screens:
http://img94.imageshack.us/img94/8528/23081757.png

http://img708.imageshack.us/img708/6856/39970222.png

http://img841.imageshack.us/img841/8840/16132487.png

http://img32.imageshack.us/img32/9440/68267318.png

http://img830.imageshack.us/img830/3741/69978585.png

Related torrents

Torrent NameAddedSizeSeedLeechHealth
Verified torrent
1 Year+ - in Movies1.5 GB02
1 Year+ - in Movies708.1 MB1135
1 Year+ - in Movies2.25 GB117
1 Year+ - in Movies1.31 GB00
1 Year+ - in Movies1.06 GB138

Comments (0 Comments)




Please login or create a FREE account to post comments

Latest Searches

| official top 40 December 2016 | paris sub ita | ZZSeries Brandi Love Kirsten Price Two Girls One Cock | ask this old house 4 5 | ocean hevc | Petite Ballerina Spinner | 24 7x19 | westworld 720p h264 hdtv s01e10 | the matchbreaker | daddys pet |