Quick Browse
Movies
TV shows
Music
Games
Applications
Anime
Other
Facebook
Advertising

Friends
Torrent Download
Movie4u
1337x.to
Torrent Downloads




Verified torrent I Hate Luv Storys (2010) Hindi 1 CD Dvdrip Xvid MP3 [email protected]


    Seeders : 11      Leechers : 2

Trackers List

Tracker NameLast CheckStatusSeedersLeechers




Torrent File Content (2 files)


I Hate Luv Storys (2010) {www.mastitorrents.com}
     I Hate Luv Storys (2010) {www.mastitorrents.com}.avi -
690.37 MB

     I Hate Luv Storys (2010) {www.mastitorrents.com}.srt -
107.16 KB



Description



Ripper                           : snaink
Source : DVD9 @ Dus Ka Sher

General

Format : AVI
Format/Info : Audio Video Interleave
Format profile : OpenDML
File size : 690 MiB
Duration : 2h 8mn
Overall bit rate : 750 Kbps

Video
Format : MPEG-4 Visual
Format profile : [email protected]
Format settings, BVOP : Yes
Format settings, QPel : No
Format settings, GMC : No warppoints
Format settings, Matrix : Default (H.263)
Codec ID : XVID
Codec ID/Hint : XviD
Duration : 2h 8mn
Bit rate : 618 Kbps
Width : 688 pixels
Height : 288 pixels
Display aspect ratio : 2.35:1
Frame rate : 29.970 fps
Resolution : 24 bits
Colorimetry : 4:2:0
Scan type : Progressive
Bits/(Pixel*Frame) : 0.104
Stream size : 569 MiB (82%)
Writing library : XviD 1.2.1 (UTC 2008-12-04)

Audio
Format : MPEG Audio
Format version : Version 1
Format profile : Layer 3
Codec ID : 55
Codec ID/Hint : MP3
Duration : 2h 8mn
Bit rate mode : Constant
Bit rate : 128 Kbps
Channel(s) : 2 channels
Sampling rate : 48.0 KHz
Resolution : 16 bits
Stream size : 118 MiB (17%)
Alignment : Aligned on interleaves
Interleave, duration : 1105 ms (33.12 video frames)
Interleave, preload duration : 216 ms
Title : VTS_02_1 T81 2_0ch 224Kbps DELAY 0ms
Writing library : LAME3.98r



http://img837.imageshack.us/img837/9817/14066239432787430642.jpg

http://img697.imageshack.us/img697/1235/40021200633927119211.jpg

http://img839.imageshack.us/img839/5961/53027697680294617586.jpg

http://img835.imageshack.us/img835/593/65264181932117720903.jpg

http://img830.imageshack.us/img830/7250/69609483688695609845.jpg

http://img823.imageshack.us/img823/8080/71977007390928652727.jpg

Related torrents

Torrent NameAddedSizeSeedLeechHealth
Verified torrent
1 Year+ - in Movies690.48 MB04
1 Year+ - in Movies708.29 MB2171
1 Year+ - in Movies4.41 GB00
1 Year+ - in Movies12.08 GB11
1 Year+ - in Music757.23 MB00

Comments (0 Comments)




Please login or create a FREE account to post comments

Latest Searches

| Diamond Kitty | All Roads Lead To Rome 2015 BRRip XviD AC3 EVO avi | jap uncensored mp4 | J K Rowling Short Stories from Hogwarts | Euro Truck Simulator 2 Vive La France ALL DLCs | Jaye Summer Innocent Cutie Tries BBC | Ella Harder | this is s01e10 | teen wolf season 6 ep | arrow 5 episode 9 |