Quick Browse
Movies
TV shows
Music
Games
Applications
Anime
Other
Facebook
Advertising

Friends
Torrent Download
Movie4u
1337x.to
Torrent Downloads




Ice Age 3: Dawn of the (2009)(Dutch)(MPEG-4)(IPONE) 2Lions-Team


    Seeders : 10      Leechers : 0

Trackers List

Tracker NameLast CheckStatusSeedersLeechers




Torrent File Content (4 files)


Ice Age 3 Dawn of the (2009)Dutch 2Lions-Team MPEG-4 (IPONE) 2Lions-Team
    INFO 2Lions-Team
          logo 2Lions.jpg -
314.99 KB

          Ice Age 3 Dawn of the (2009)Dutch 2Lions-Team MPEG-4 (IPONE) 2Lions-Team.txt -
4.14 KB

          Torrents aan geboden door _2lions.ons-forum.nl.txt -
583 bytes

    MOVIE
          Ice age 3.mp4 -
1.03 GB



Description



Ice Age 3: Dawn of the Dinosaurs  (2009)Dutch 2Lions-Team MPEG-4 (IPONE) 2Lions-Team 

http://img291.imageshack.us/img291/5201/iceagedawnofthedinosaurd.jpg



Vanaf 24 november in de videotheek



Verenigde Staten
Animatie / Komedie
94 minuten

geregisseerd door Carlos Saldanha en Mike Thurmeier
met de stemmen van John Leguizamo, Denis Leary en Ray Romano

In dit nieuwe ''Ice Age avontuur'' jaagt Scrat nog steeds de beruchte eikel na, terwijl hij ondertussen misschien wel zijn ware liefde vindt. Daarnaast verwachten Manny en Ellie hun eerste baby-mammoet, probeert Sid een eigen familie te creƫren door een paar dinosaurus-eieren te pikken en Diego vraagt zich af of hij door zijn zachtaardige vrienden niet te lief wordt voor een sabeltand-tijger. Op een missie om Sid te redden, komt de groep in een mysterieuze ondergrondse wereld terecht, waar ze middenin de tropische wildernis en tussen de dinosaurussen belanden. Hier ontmoeten ze de brute, eenogige dinosaurus-jager Buck de wezel.....

English

After the events of "Ice Age: The Meltdown", life begins to change for Manny and his friends: Scrat is still on the hunt to hold onto his beloved acorn, while finding a possible romance in a female sabre-toothed squirrel named Scratte. Manny and Ellie, having since become an item, are expecting a baby, which leaves Manny anxious to ensure that everything is perfect for when his baby arrives. Diego is fed up with being treated like a house-cat and ponders the notion that he is becoming too laid-back. Sid begins to wish for a family of his own, and so steals some dinosaur eggs which leads to Sid ending up in a strange underground world where his herd must rescue him, while dodging dinosaurs and facing danger left and right, and meeting up with a one-eyed weasel known as Buck who hunts dinosaurs intently




Bron : Retail
Audio : Dutch

[code]Format : MPEG-4
Format profile : Base Media
Codec ID : isom
File size : 1.03 GiB
Duration : 1h 30mn
Overall bit rate : 1 632 Kbps


Video
ID : 1
Format : MPEG-4 Visual
Format profile : [email protected]
Format settings, BVOP : No
Format settings, QPel : No
Format settings, GMC : No warppoints
Format settings, Matrix : Default (H.263)
Codec ID : 20
Duration : 1h 30mn
Bit rate mode : Variable
Bit rate : 1 499 Kbps
Width : 720 pixels
Height : 406 pixels
Display aspect ratio : 16/9
Frame rate mode : Constant
Frame rate : 25.000 fps
Resolution : 24 bits
Colorimetry : 4:2:0
Scan type : Progressive
Bits/(Pixel*Frame) : 0.205
Stream size : 967 MiB (92%)
Writing library : Lavc51.40.4


Audio
ID : 2
Format : AAC
Format/Info : Advanced Audio Codec
Format version : Version 4
Format profile : LC
Format settings, SBR : No
Codec ID : 40
Duration : 1h 30mn
Bit rate mode : Variable
Bit rate : 128 Kbps
Channel(s) : 2 channels
Channel positions : L R
Sampling rate : 48.0 KHz
Resolution : 16 bits
Stream size : 82.5 MiB (8%)[/code]

Genre : Animatie
Komedie

Weblink : http://www.moviemeter.nl/film/49071
Weblink : http://www.imdb.com/title/tt1080016

*****************************************

Brought to you by
Pioen
http://i226.photobucket.com/albums/dd118/FloraKing/Avator/bloemenmeisje.gif

2Lions Team



http://i845.photobucket.com/albums/ab16/hortencia9/_96637_four_weddings_and_a_funeral_.jpg



2Lions-Team for all your Dutch MOVIES and more

*****************************************

DON T HIT AND RUN Niet gelijk afhaken als de film binnen is blijf seeden.

Related torrents

Torrent NameAddedSizeSeedLeechHealth
1 Year+ - in Movies2 GB032
1 Year+ - in Movies4.31 GB128155
1 Year+ - in Movies1.06 GB414
4 months ago - in Other2.54 GB00
1 Year+ - in Other2.15 GB2510

Comments (0 Comments)




Please login or create a FREE account to post comments

Latest Searches

| Starfighter Crossbones | ftvgirls Astrids | bailey ryder wetting her panties pir te | miss big boob | TUSHY First petite | xxx miranda | layla london ames | CzechFantasy 15 | a portrait in music | puremature kiera rose horny real estate agent 720p new april 30 2016 |