Quick Browse
Movies
TV shows
Music
Games
Applications
Anime
Other
Facebook
Advertising

Friends
Torrent Download
Movie4u
1337x.to
Torrent Downloads




Il.Nome.Del.Mio.Assassino.2007.iTALiAN.DVDRip.XviD-Rebels.[ultimafrontiera]


    Seeders : 0      Leechers : 0

Trackers List

Tracker NameLast CheckStatusSeedersLeechers




Torrent File Content (2 files)


Il.Nome.Del.Mio.Assassino.2007.iTALiAN.DVDRip.XviD-Rebels.avi
     Il.Nome.Del.Mio.Assassino.2007.iTALiAN.DVDRip.XviD-Rebels.CD1.avi -
697.25 MB

     Il.Nome.Del.Mio.Assassino.2007.iTALiAN.DVDRip.XviD-Rebels.CD2.avi -
701.13 MB



Description



http://i35.tinypic.com/23vevc8.jpg


http://i37.tinypic.com/2cncpw6.jpg


http://i36.tinypic.com/2wlzn9f.jpg


Titolo originale: I Know Who Killed Me
Nazione: U.S.A.
Anno: 2007
Genere: Thriller
Durata: 105
Regia: Chris Sivertson
Produzione: 360 Pictures



http://i34.tinypic.com/301n9ec.jpg


[color=#00FF00]Lindsay Lohan, Julia Ormond, Neal McDonough, Brian Geraghty, Bonnie Aarons, Garcelle Beauvais, Paula Marshall, Kenya

Moore[/color]


http://i33.tinypic.com/2ldeeyr.jpg


[color=orange]Una ragazza, Dakota, viene rapita e mutilata da un pericoloso serial killer, ma fortunatamente riesce a fuggire venendo soccorsa e

portata in ospedale. Qui, per la sua somiglianza, viene scambiata con la figlia di una coppia molto importante in città, scomparsa giorni prima. Quando

lei cerca di spiegarlo, i medici pensano che la ragazza abbia dei problemi mentali dovuti al trauma, ma intanto la vita della sua sosia é in forte

pericolo...
[/color]

http://i38.tinypic.com/2ihuvd2.jpg


[color=red][b] La regina del gossip d’inizio millennio Lindsay Lohan è Aubrey Fleming, la classica studiosa e brava ragazza della provincia americana

che, in attesa in strada per un appuntamento serale, finisce nelle mani di un serial killer con la passione per la mutilazione delle proprie vittime,

ritrovandosi quindi privata di un braccio e una gamba.
Ed il fatto che la sola Lohan si sia aggiudicata il premio Razzie (l’Oscar riservato ai film brutti) per la peggior coppia dello schermo è presto

spiegato: ritrovata e portata in ospedale, Aubrey afferma di essere la spogliarellista Dakota Moss, rinnegando qualsiasi legame di parentela con i

propri genitori.
Da qui, tra flashback e colpi di scena, il lungometraggio di Chris Sivertson ("The lost") si snoda sul continuo parallelismo tra la vita di Aubrey e

quella di Dakota, mentre lo spettatore, cui non vengono risparmiate violente situazioni da torture porn alla "Hostel" e "Saw" (o "Captivity"?), viene

di volta in volta invitato a mettere insieme i pezzi del puzzle al fine di far luce su quanto accaduto veramente.
E precisiamo subito che, al di là delle tante voci spoileranti che volevano la protagonista di "Mean girls" (2004) e "Baciati della sfortuna" (2006)

alle prese con sequenze piccanti e nudi integrali, il suo personaggio (o i suoi personaggi?) non mostra assolutamente niente, né quando si esibisce

come stripteaser, né sotto la doccia, né quando fa sesso con il fidanzato.
Ciò che rimane, altro non è che un intricato dramma horror ad alta tensione reso non in pochi momenti fiacco dagli eccessivamente lenti ritmi di

narrazione, tanto che, ancor prima della più o meno intuibile rivelazione finale, ad affascinare è soprattutto l’abbondanza di dominanti bluastre

sfruttate dalla fotografia di John R. Leonetti ("Il re Scorpione").
Per il resto, se togliessimo quei pochi, riusciti effettacci splatter, rimarrebbe quello che con molta facilità potrebbe essere associato ad uno dei

tanti thriller per famiglie che affollano le serate estive del piccolo schermo.

La frase: "Io so chi mi ha uccisa".
Francesco Lomuscio



http://i34.tinypic.com/1z1495e.jpg


[code]Generale

Nome : Il.Nome.Del.Mio.Assassino.2007.iTALiAN.DVDRip.XviD-Rebels.CD2.avi
Format : AVI
Format/Info : Audio Video Interleave
File size : 701 MiB
Duration : 52mn 4s
Overall bit rate : 1 882 Kbps
Writing application : VirtualDubMod 1.5.10.2 (build 2540/release)
Writing library : VirtualDubMod build 2540/release

Video

ID : 0
Format : MPEG-4 Visual
Format profile : [email protected]
Format settings, BVOP : Yes
Format settings, QPel : No
Format settings, GMC : No warppoints
Format settings, Matrix : Default (MPEG)
Codec ID : XVID
Codec ID/Hint : XviD
Duration : 52mn 4s
Bit rate : 1 425 Kbps
Width : 656 pixels
Height : 272 pixels
Display aspect ratio : 2.40:1
Frame rate : 25.000 fps
Resolution : 24 bits
Colorimetry : 4:2:0
Scan type : Progressive
Bits/(Pixel*Frame) : 0.319
Stream size : 531 MiB (76%)
Writing library : XviD 1.2.1 (UTC 2008-12-04)

Audio

ID : 1
Format : AC-3
Format/Info : Audio Coding 3
Codec ID : 2000
Duration : 52mn 4s
Bit rate mode : Constant
Bit rate : 448 Kbps
Channel(s) : 6 channels
Channel positions : Front: L C R, Surround: L R, LFE
Sampling rate : 48.0 KHz
Video delay : 8ms
Stream size : 167 MiB (24%)
Alignment : Split accross interleaves
Interleave, duration : 40 ms (1.00 video frame)
Interleave, preload duration : 500 ms [/code]


http://i38.tinypic.com/34hbbjr.jpg


http://www.youtube.com/watch?v=6LaOV87bBmY

Related torrents

Torrent NameAddedSizeSeedLeechHealth
1 Year+ - in Movies1.37 GB1416
1 Year+ - in Movies1.36 GB00
1 Year+ - in Movies1.37 GB00
1 Year+ - in Movies7.35 GB00
1 Year+ - in Movies699.76 MB15119

Comments (0 Comments)




Please login or create a FREE account to post comments

Latest Searches

| The Enemy Within 1994 dimension | faketaxi e272 alexa tomas now it was my turn to fuck her part ii | va car audio honey for your ears sound clinic bass edition mp3 kbps | 720p s01e01 Incorporated | MY NAUGHTY GF | eng sub Shoujo Senki Soul Eater OVA 01 | Mofos Account Generator | The Enemy Within dimension | salambo | katatonia murder |