Quick Browse
Movies
TV shows
Music
Games
Applications
Anime
Other
Facebook
Advertising

Friends
Torrent Download
Movie4u
1337x.to
Torrent Downloads




Il.Superpoliziotto.Del.Supermercato.2009.iTALiAN.DVDRip.XviD-Republic.[ultimafrontiera]


    Seeders : 0      Leechers : 0

Trackers List

Tracker NameLast CheckStatusSeedersLeechers




Torrent File Content (1 file)


     Il.Superpoliziotto.Del.Supermercato.2009.iTALiAN.DVDRip.XviD-Republic -
700.01 MB



Description



http://i35.tinypic.com/23vevc8.jpg


http://i33.tinypic.com/2yu11z6.jpg


http://i36.tinypic.com/2wlzn9f.jpg


Titolo originale: Paul Blart: Mall Cop
Nazione: U.S.A.
Anno: 2009
Genere: Commedia, Azione
Durata: 91
Regia: Steve Carr
Produzione: Columbia Pictures, Happy Madison Productions



http://i34.tinypic.com/301n9ec.jpg


[color=#00FF00]Kevin James, Keir O'Donnell, Jayma Mays, Raini Rodriguez, Shirley Knight, Stephen Rannazzisi, Bobby Cannavale, Erick Avari, Adhir Kalyan, Peter Gerety[/color]

http://i33.tinypic.com/2ldeeyr.jpg


[color=orange]Dopo numerosi tentativi di entrare nel corpo della polizia andati male per via degli esami fisici, infatti, risulta essere eccessivamente sovrappeso, Paul Blart, trova lavoro come addetto alla sicurezza in centro commerciale. Quando un giorno, una banda di teppisti prende di mira il complesso, facendo degli ostaggi, Paul dovrà mostrare tutto il suo valore, prendendo in mano la situazione e cercare di salvare le malcapitate vittime...[/color]

http://i38.tinypic.com/2ihuvd2.jpg


[color=red] Da "Next Friday" (2000) a "Finalmente a casa" (2007), sequel di "Io, lei e i suoi bambini" (2005) di Brian Levant, il curriculum registico di Steve Carr, costituito da una mezza dozzina di lungometraggi, è formato esclusivamente da commedie o, comunque, prodotti destinati allo spettatore in vena di facili risate.
Non fa eccezione questo "Paul Blart: Mall cop" (come s’intitola originariamente il film), in cui il bravo Kevin James di "Hitch-Lui sì che capisce le donne" (2005) veste i panni di un esilarante protagonista in sovrappeso che, dopo numerosi tentativi di entrare nel corpo della polizia andati a male, trova lavoro in qualità di addetto alla sicurezza in un centro commerciale, il quale viene inaspettatamente preso di mira da una banda di teppisti con tanto di ostaggi.
Il classico pretesto, quindi, per poter raccontare le imbranatissime imprese del tipico anti-eroe per famiglie a stelle e strisce, continuamente alle prese con dolorose cadute proto-cartoon, mentre tenta di riscattarsi portando in salvo i poveri innocenti e, in mezzo all’infinità di momenti d’azione, entra in scena anche la Jayma Mays di "Appuntamento al buio" (2006) e "Red eye" (2004), calata nel personaggio cui spetta il lato dolce-rosa dell’operazione.
Man mano che i fotogrammi avanzano e il lavoro degli stunt finisce per risultare decisamente lodevole, però, viene seriamente da chiedersi come sia possibile che la pellicola, costata circa 25 milioni di dollari, sia arrivata ad incassarne in patria oltre 146, in quanto, dinanzi alla marea di stanche gag basate più su una certa comicità fisica indirizzata in maniera evidente al pubblico dei bambini che su quella verbale, ridere si rivela ben presto un’impresa assai ardua.
D’altra parte, se lo sceneggiatore Nick Bakay, autore dello script al fianco dello stesso Kevin James, proviene dal poco rassicurante – parlando di ritmi narrativi – universo televisivo, non dobbiamo dimenticare che il regista include tra i propri lavori il pessimo "L’asilo dei papà" (2003) con Eddie Murphy.
Anche se, a questo punto, c’incuriosirebbe vederlo al timone di un serio action-movie.

La frase: "Una cosa è certa: Paul Blart non è un temerario".
Francesco Lomuscio

[/color]


http://i34.tinypic.com/1z1495e.jpg


[code]Format : AVI
Format/Info : Audio Video Interleave
File size : 700 MiB
Duration : 1h 27mn
Overall bit rate : 1 121 Kbps
Writing application : VirtualDubMod 1.5.10.2 (build 2540/release)
Writing library : VirtualDubMod build 2540/release

Video
ID : 0
Format : MPEG-4 Visual
Format profile : [email protected]
Format settings, BVOP : Yes
Format settings, QPel : No
Format settings, GMC : No warppoints
Format settings, Matrix : Default (H.263)
Codec ID : XVID
Codec ID/Hint : XviD
Duration : 1h 27mn
Bit rate : 978 Kbps
Width : 592 pixels
Height : 320 pixels
Display aspect ratio : 1.850
Frame rate : 25.000 fps
Resolution : 24 bits
Colorimetry : 4:2:0
Scan type : Progressive
Bits/(Pixel*Frame) : 0.207
Stream size : 611 MiB (87%)
Writing library : XviD 1.2.1 (UTC 2008-12-04)

Audio
ID : 1
Format : MPEG Audio
Format version : Version 1
Format profile : Layer 3
Codec ID : 55
Codec ID/Hint : MP3
Duration : 1h 27mn
Bit rate mode : Variable
Bit rate : 130 Kbps
Nominal bit rate : 128 Kbps
Channel(s) : 2 channels
Sampling rate : 48.0 KHz
Resolution : 16 bits
Stream size : 81.0 MiB (12%)
Alignment : Aligned on interleaves
Interleave, duration : 24 ms (0.60 video frame) [/code]


http://i38.tinypic.com/34hbbjr.jpg


http://www.youtube.com/watch?v=Tjil_uIck1w

Related torrents

Torrent NameAddedSizeSeedLeechHealth
1 Year+ - in Movies700.01 MB5563
1 Year+ - in Movies683.32 MB75
1 Year+ - in Movies683.32 MB33
1 Year+ - in Movies683.32 MB126208
1 Year+ - in Movies363 bytes00

Comments (0 Comments)




Please login or create a FREE account to post comments

Latest Searches

| demeon | Amateur Cuban Loved Getting Her Facial | 2015 10 13 Naughty Neighbor Iggy Amore | latina maid gets banged alexa | Murder in the First 1 | Shadow Tactics Blades of the Shogun v1 1 2f MULTI10 FitGirl Repack | get high lil u | lockjaw ft kodak | Sasha Bell decorating sashas face | Don 2 2011 1080p |