Quick Browse
Movies
TV shows
Music
Games
Applications
Anime
Other
Facebook
Advertising

Friends
Torrent Download
Movie4u
1337x.to
Torrent Downloads




Verified torrent Il Castello errante di Howl [H264 Ita Jap 5.1] HDTVmux - Animazione - Avventura - Fantastico [tntvillage]


    Seeders : 7      Leechers : 7

Trackers List

Tracker NameLast CheckStatusSeedersLeechers




Torrent File Content (1 file)


     [HDTV 720p ITA-JAP AC3] Howl's Moving Castle [HDitaly].mkv -
2.86 GB



Description



Il Castello errante di Howl [H264 Ita Jap 5.1] HDTVmux - Animazione - Avventura - Fantastico [Tntvillage]

Visit this link for more info http://forum.tntvillage.scambioetico.org/tntforum/?showtopic=210231

Film di animazione giapponese del 2004 diretto da Hayao Miyazaki

http://giulystar.files.wordpress.com/2009/09/il-castello-errante-di-howl.jpg


Visit the IMDB link: http://www.Imdb.com/title/tt0347149

Critica

Il film presenta molte delle caratteristiche tipiche delle opere di Miyazaki: ha come protagonista una ragazza, come Nausicaä della valle del vento, La città incantata, Laputa: castello nel cielo e Kiki consegne a domicilio, ed ha un'ambientazione che ricorda nei vestiti e nell'architettura l'Europa degli inizi del Novecento, ma in un mondo in cui è presente la magia.

È stato presentato in concorso alla 61a Mostra internazionale d'arte cinematografica di Venezia, ed è uscito nelle sale italiane il 9 settembre 2005; fra le altre cose, con questo film il maestro ha ottenuto il Leone d'oro alla carriera, risultando l'unico produttore di film d'animazione a conquistare sia l'oscar che il Leone d'oro.

L'ambientazione che riecheggia la Vienna imperiale dell'800 nonché le automobili e le macchine da guerra volanti che vi si vedono, tutte mosse dalla forza del vapore, lo caratterizzano sicuramente come opera appartenente al filone Steampunk.


Trama

La vita di Sophie, una semplice ragazza, viene sconvolta dall'incontro con un misterioso individuo e, in seguito, da un maleficio scagliatole dalla malvagia Strega delle Lande, che la trasforma in una vecchietta; è cosi costretta ad andare via di casa a causa delle nuove sembianze. Nel viaggio verso le Lande, incontra uno strano spaventapasseri animato, che la inviterà a seguirlo fino a farla imbattere in un castello semovente in cui, pare, abiti il famigerato mago Howl. Qui si stabilirà come donna delle pulizie e scoprirà così che il misterioso ragazzo che aveva incontrato è proprio Howl, al quale la Strega delle Lande dà la caccia e sul quale pende una terribile maledizione, che lo lega al suo demone del fuoco domestico Calcifer. Per sciogliere la maledizione che la strega delle Lande ha lanciato su di lei, stringe un patto con Calcifer: lei scoprirà il segreto del patto tra Calcifer e Howl in cambio della liberazione. Nel mondo dove il potere della guerra e della magia sconvolgono senza pietà persone e luoghi, Sophie, grazie solo alle semplici armi del perdono, dell'amicizia e dell'amore riuscirà a costruire un nuovo modello di convivenza.


Awards:

* 2004 - Nomination al Sitges - Catalonian International Film Festival come "Miglior Film" ad Hayao Miyazaki
* 2004 - Audience Award al Sitges - Catalonian International Film Festival come "Migliore Realizzazione" ad Hayao Miyazaki
* 2004 - Nomination al Leone d'Oro al Festival di Venezia ad Hayao Miyazaki
* 2004 - Premio Osella al Festival di Venezia
* 2005 - Los Angeles Film Critics Association Award come "Migliore Musica" a Joe Hisaishi, Youmi Kimura
* 2005 - Reader's Choice Award al Mainichi Film Concours come "Migliore Film" ad Hayao Miyazaki
* 2005 - New York Film Critics Circle Award come "Migliore Film d'Animazione"
* 2005 - San Diego Film Critics Society Award come "Miglior Film d'Animazione"
* 2005 - Nomination al Satellite Award come "Miglior Film d'Animazione"
* 2006 - Nomination al Premio Oscar come "Miglior Film d'Animazione dell'Anno" ad Hayao Miyazaki
* 2006 - Nomination al Saturn Award come "Miglior Film d'Animazione" dall'Academy of Science Fiction, Fantasy & Horror Films
* 2006 - 3 Nomination agli Annie Awards: "Miglior Film d'Animazione", "Migliore Regia in una Produzione d'Animazione" ad Hayao Miyazaki , "Migliore Scrittura in una Produzione d'Animazione" ad Hayao Miyazaki , Donald H. Hewitt , Cindy Davis Hewitt
* 2006 - Nomination al Broadcast Film Critics Association Award come "Miglior Film d'Animazione"
* 2006 - Hollywood Film Award come "Animazione dell'Anno" ad Hayao Miyazaki
* 2006 - Nomination al Hong Kong Film Award come "Miglior Film Asiatico"
* 2006 - Nomination al Silver Ribbon come "Regista del Miglior Film Straniero" ad Hayao Miyazaki
* 2006 - Nomination al Golden Reel Award dal Motion Picture Sound Editors come "Migliore Sound Editing in un Film d'Animazione" a Petra Bach (supervising adr editor), Toru Noguchi (sound editor), Yukio Hokari (foley artist), Mizuki Itou (foley artist), Masaya Kitada (foley artist), Akihiko Okase (foley artist)
* 2006 - Nomination all'Online Film Critics Society Award come "Migliore Film d'Animazione"
* 2006 - Nomination allo Young Artist Award come "Miglior Film d'Animazione per Famiglie"
* 2007 - Premio Nebula dagli Science Fiction and Fantasy Writers of America come "Migliore Sceneggiatura" ad Hayao Miyazaki


http://img202.Imageshack.us/img202/6074/smovingcastlehditalymkv.th.jpg
http://img685.Imageshack.us/img685/6074/smovingcastlehditalymkv.th.jpg
http://img38.Imageshack.us/img38/6074/smovingcastlehditalymkv.th.jpg

http://img140.Imageshack.us/img140/6074/smovingcastlehditalymkv.th.jpg
http://img97.Imageshack.us/img97/6074/smovingcastlehditalymkv.th.jpg




General
Complete name : D:\[HDTV 720p ITA-JAP AC3] Howl's Moving Castle [HDitaly].mkv
Format : Matroska
File size : 2.86 GiB
Duration : 1h 54mn
Overall bit rate : 3 581 Kbps
Movie name : Howl's Moving Castle (2004) - BedMakaveli
Encoded date : UTC 2008-12-24 10:45:22
Writing application : mkvmerge v2.4.1 ('Use Me') built on Dec 5 2008 18:30:05
Writing library : libebml v0.7.7 + libmatroska v0.8.1
Cover : Yes / Yes / Yes

Video
ID : 1
Format : AVC
Format/Info : Advanced Video Codec
Format profile : [email protected]
Format settings, CABAC : Yes
Format settings, ReFrames : 13 frames
Muxing mode : Container [email protected]
Codec ID : V_MPEG4/ISO/AVC
Duration : 1h 54mn
Bit rate : 2 742 Kbps
Nominal bit rate : 2 700 Kbps
Width : 1 280 pixels
Height : 688 pixels
Display aspect ratio : 1.860
Frame rate : 25.000 fps
Original frame rate : 23.976 fps
Resolution : 8 bits
Colorimetry : 4:2:0
Scan type : Progressive
Bits/(Pixel*Frame) : 0.125
Stream size : 2.19 GiB (77%)
Title : Howl's Moving Castle - Hauru no ugoku shiro
Writing library : x264 core 54 svn-600M
Encoding settings : cabac=1 / ref=10 / deblock=1:0:0 / analyse=0x3:0x133 / me=umh / subme=7 / brdo=1 / mixed_ref=1 / me_range=16 / chroma_me=1 / trellis=0 / 8x8dct=1 / cqm=0 / deadzone=7,6 / chroma_qp_offset=0 / threads=2 / nr=0 / decimate=0 / mbaff=0 / bframes=10 / b_pyramid=1 / b_adapt=1 / b_bias=0 / direct=1 / wpredb=1 / bime=1 / keyint=250 / keyint_min=25 / scenecut=40(pre) / rc=2pass / bitrate=2700 / ratetol=1.0 / rceq='blurCplx^(1-qComp)' / qcomp=0.60 / qpmin=10 / qpmax=51 / qpstep=4 / cplxblur=20.0 / qblur=0.5 / ip_ratio=1.40 / pb_ratio=1.30
Language : Italian

Audio #1
ID : 2
Format : AC-3
Format/Info : Audio Coding 3
Codec ID : A_AC3
Duration : 1h 54mn
Bit rate mode : Constant
Bit rate : 384 Kbps
Channel(s) : 6 channels
Channel positions : Front: L C R, Surround: L R, LFE
Sampling rate : 48.0 KHz
Video delay : 16ms
Stream size : 314 MiB (11%)
Title : AC3 Italiano
Language : Italian

Audio #2
ID : 3
Format : AC-3
Format/Info : Audio Coding 3
Codec ID : A_AC3
Duration : 1h 54mn
Bit rate mode : Constant
Bit rate : 384 Kbps
Channel(s) : 6 channels
Channel positions : Front: L C R, Surround: L R, LFE
Sampling rate : 48.0 KHz
Video delay : 16ms
Stream size : 314 MiB (11%)
Title : AC3 Japanese
Language : Japanese

Menu
00:00:00.000 : en:Chapter 1
00:01:03.200 : en:Chapter 2
00:04:57.500 : en:Chapter 3
00:12:21.000 : en:Chapter 4
00:18:21.167 : en:Chapter 5
00:23:14.367 : en:Chapter 6
00:28:49.200 : en:Chapter 7
00:33:10.800 : en:Chapter 8
00:40:06.833 : en:Chapter 9
00:45:26.667 : en:Chapter 10
00:49:11.933 : en:Chapter 11
00:55:22.033 : en:Chapter 12
00:58:28.000 : en:Chapter 13
01:04:46.333 : en:Chapter 14
01:10:48.467 : en:Chapter 15
01:15:18.833 : en:Chapter 16
01:20:19.667 : en:Chapter 17
01:25:13.367 : en:Chapter 18
01:32:24.333 : en:Chapter 19
01:38:28.667 : en:Chapter 20
01:44:15.167 : en:Chapter 21
01:48:13.300 : en:Chapter 22
01:52:11.767 : en:Chapter 23
01:54:31.167 : en:Chapter 24
01:59:00.667 : en:Chapter 25



Visit http://www.tntvillage.org/

Related torrents

Torrent NameAddedSizeSeedLeechHealth
Verified torrent
1 Year+ - in Anime4.36 GB00
Verified torrent
1 Year+ - in Anime1.53 GB1610
Verified torrent
1 Year+ - in Other5.41 MB331
1 Year+ - in Movies2.86 GB00
1 Year+ - in Anime8.42 GB154

Comments (0 Comments)




Please login or create a FREE account to post comments

Latest Searches

| s01e36 | Ylvis The Fox What Does The Fox Say Official music video HD | Ae Dil Hai Mushkil 2016 Hindi 1CD DVDRip X264 AC3 MAXPRO | The Magnificent Seven 2016 720p BluRay x264 ShAaNiG mkv | ddf eva notty 1080p | daemon tools 10 5 | Udemy Pianoforall | Various Artists Tune In | on tha cool | M O P Roc La Familia |