Quick Browse
Movies
TV shows
Music
Games
Applications
Anime
Other
Facebook
Advertising

Friends
Torrent Download
Movie4u
1337x.to
Torrent Downloads




Verified torrent Il Cigno Nero 2010 iTALiAN AC3 BDRip-TrTd_CREW.avi.torrent


    Seeders : 183      Leechers : 25

Trackers List

Tracker NameLast CheckStatusSeedersLeechers




Torrent File Content (1 file)


     Il.Cigno.Nero.2010.iTALiAN.AC3.BDRip-TrTd_CREW.avi -
1.01 GB



Description



http://www.torrented.org/public/phpbb3/images/presenta.png

http://www.uptiki.com/images/pnpqfetlbtm86h85xo2h.png


http://www.torrented.org/public/phpbb3/images/info%20film.png

Titolo : Il Cigno Nero
Titolo Originale: Black Swan
Categoria: Drammatico,Thriller
Attori (voci): Mila Kunis, Natalie Portman, Winona Ryder, Sebastian Stan, Vincent Casse
Registi: Darren Aronofsky
Anno: 2010
Minuti: 103'
Nazione: USA
Uscita Cinema: 18/02/2011


http://www.uptiki.com/images/q4hfdn1j8d0s6geeoq2f.jpg


[quote]General
Complete name : Il.Cigno.Nero.2010.iTALiAN.AC3.BDRip-TrTd_CREW.avi
Format : AVI
Format/Info : Audio Video Interleave
Format profile : OpenDML
File size : 1.01 GiB
Duration : 1h 48mn
Overall bit rate : 1 339 Kbps
Movie name : Cigno Nero By www.torrented.org
Writing application : Lavf53.0.3
Copyright : www.torrented.org

Video
ID : 0
Format : MPEG-4 Visual
Format profile : [email protected]
Format settings, BVOP : No
Format settings, QPel : No
Format settings, GMC : No warppoints
Format settings, Matrix : Default (H.263)
Codec ID : XVID
Codec ID/Hint : XviD
Duration : 1h 48mn
Bit rate : 1 005 Kbps
Width : 720 pixels
Height : 304 pixels
Display aspect ratio : 2.35:1
Frame rate : 23.976 fps
Resolution : 24 bits
Colorimetry : 4:2:0
Scan type : Progressive
Bits/(Pixel*Frame) : 0.191
Stream size : 777 MiB (75%)
Writing library : XviD 63

Audio
ID : 1
Format : AC-3
Format/Info : Audio Coding 3
Codec ID : 2000
Duration : 1h 48mn
Bit rate mode : Constant
Bit rate : 320 Kbps
Channel(s) : 6 channels
Channel positions : Front: L C R, Surround: L R, LFE
Sampling rate : 48.0 KHz
Resolution : 16 bits
Stream size : 247 MiB (24%)
Alignment : Aligned on interleaves
Interleave, duration : 32 ms (0.77 video frame)[/quote]

Related torrents

Torrent NameAddedSizeSeedLeechHealth
1 Year+ - in Movies1.37 GB00
Verified torrent
1 Year+ - in Movies1.67 GB171
1 Year+ - in Movies1.36 GB41
1 Year+ - in Movies705.16 MB10
1 Year+ - in Movies1.49 GB00

Comments (0 Comments)




Please login or create a FREE account to post comments

Latest Searches

| EDIVA 41 KARESSA 37 | vivthomas ava courcelles | Shake it 2 | N Case | c will our time | Mercedes Carrera My Dads Lover Cleaned My Pole | nation number | Michael Lucas | man on the moon l a | young thug 2 bitches |