Quick Browse
Movies
TV shows
Music
Games
Applications
Anime
Other

Latest Articles

Friends
Torrents.me
Torrent Download
Free Movies
1337x
RARBG
Torrent Downloads

Il Rinascimento - 06 - Galileo Galilei [XviD -Ita - Mp3] [TNTvillage]


    Seeders : 0      Leechers : 0

Warning! Do not Download Torrents Without a VPN!
Your IP Address is .   And Location is
Your Internet Provider and Government can track your torrent Activity!  Hide your IP ADDRESS with a VPN!
We Strongly Recommend Using SpyOFF Torrent VPN to Anonymize your Torrenting. It's FREE for 15 Days!

Note :

Please Update (Trackers Info) Before Downloading Torrents to See Updated Seeders And Leechers for Batter Download Speed.

Trackers List

Tracker NameLast CheckStatusSeedersLeechers




Torrent File Content (1 file)


     Il Rinascimento - 06 - Galileo Galilei.avi -
669.24 MB



Description



Il Rinascimento - 06 - Galileo Galilei [XviD -Ita - Mp3] [TNTvillage]

http://img52.imageshack.us/img52/3361/grande2.gif



GALILEO GALILEI

Tra scienza ed eresia



http://img6.imageshack.us/img6/2998/cover2x.gif


http://images.eprice.it/images/Prodotti/dettaglioMulti/0/615/100050615/Lightbox/100050615-000.JPG



http://img59.imageshack.us/img59/7498/scheda2.gif


Titolo: Galileo Galilei. Tra scienza ed eresia
Ean: 8009044645156
Supporto: Dvd
Produttore: Cinehollywood
Genere: Documentari
Data uscita: 09/01/2008
Lingue: Italiano
Colori: Colori
Anno di produzione: 2007
Area: Area 0 (All)
Durata: 110'
Sottotitoli: Italiano
Formato Audio: Dolby Digital 2.0 - stereo
Sistema: PAL



http://img156.imageshack.us/img156/2113/trama2.gif


La battaglia tra Galileo e la Chiesa sulle leggi dell’universo rivive nell’avvincente storia di un’esistenza condotta tra eroismo ed eresia.
Il filmato ripercorre la vita privata e gli affetti di Galileo, ricostruendo i momenti chiave della sua biografia come le osservazioni al telescopio o i rivoluzionari esperimenti sul movimento dei corpi. Sullo sfondo, il quadro dell’Italia del Seicento: la tragedia della peste e il lusso delle corti, mentre la speculazione scientifica più avanzata del mondo convive con la censura più oscurantista.
Infine l’accusa di eresia dell’Inquisizione: imputato di aver sostenuto la teoria eliocentrica di Copernico, Galileo, già malato, ebbe salva la vita. Minacciato di tortura e condannato al carcere a vita, fu costretto ad abiurare le sue teorie. Ma la via per la scienza moderna era tracciata.



http://img577.imageshack.us/img577/2868/note2p.gif


Vincitore di due Emmy Awards.

http://www.itvt.com/files/u3/emmy_award_lg.jpg



http://img28.imageshack.us/img28/5660/screen2d.gif


http://img263.imageshack.us/img263/5701/galileo1.png
http://img96.imageshack.us/img96/4228/galileo2.png


http://img684.imageshack.us/img684/6020/galileo3.png
http://img689.imageshack.us/img689/3254/galileo4.png




http://img52.imageshack.us/img52/7853/dati2.gif



General
Complete name : Il Rinascimento - 06 - Galileo Galilei.avi
Format : AVI
Format/Info : Audio Video Interleave
File size : 669 MiB
Duration : 1h 52mn
Overall bit rate : 830 Kbps
Writing application : VirtualDubMod 1.5.10.2 (build 2540/release)
Writing library : VirtualDubMod build 2540/release

Video
ID : 0
Format : MPEG-4 Visual
Format profile : Advanced [email protected]
Format settings, BVOP : Yes
Format settings, QPel : Yes
Format settings, GMC : No warppoints
Format settings, Matrix : Default (H.263)
Muxing mode : Packed bitstream
Codec ID : XVID
Codec ID/Hint : XviD
Duration : 1h 52mn
Bit rate : 692 Kbps
Width : 512 pixels
Height : 288 pixels
Display aspect ratio : 16:9
Frame rate : 25.000 fps
Resolution : 8 bits
Colorimetry : 4:2:0
Scan type : Progressive
Bits/(Pixel*Frame) : 0.188
Stream size : 558 MiB (83%)
Writing library : XviD 1.2.0SMP (UTC 2006-01-08)

Audio
ID : 1
Format : MPEG Audio
Format version : Version 1
Format profile : Layer 3
Format_Settings_Mode : Dual mono
Codec ID : 55
Codec ID/Hint : MP3
Duration : 1h 52mn
Bit rate mode : Constant
Bit rate : 128 Kbps
Channel(s) : 2 channels
Sampling rate : 48.0 KHz
Stream size : 103 MiB (15%)
Alignment : Aligned on interleaves
Interleave, duration : 40 ms (1.00 video frame)
Interleave, preload duration : 504 ms


Visit http://www.tntvillage.scambioetico.org/

Related torrents

Torrent NameAddedSizeSeedLeechHealth
5 months ago - in Other396.53 MB00
5 months ago - in Other843.61 MB00
1 Year+ - in Movies445.52 MB146
1 Year+ - in Movies396.71 MB247
1 Year+ - in Movies703.26 MB17109

Note :

Feel free to post any comments about this torrent, including links to Subtitle, samples, screenshots, or any other relevant information. Please Dont Download anything from Comments, And Dont Post Links to Streaming Sites like Fmovies, Xmovies8, 123Movies, GoMovies, CMovieshd, Solarmovie, Watchfree, Putlockers, GoStream, m4ufree etc.

Comments (0 Comments)




Please login or create a FREE account to post comments

Latest Searches

| bond 50 1997 | kix blow my fuse | high heels und enge nylons | the hobbit 720p trilogy | final ucl juventus barcelona | bond 50 1995 | Music From Baz Luhrmann | 480p SD AAC Stereo | SexArt 17 12 17 Kalisy Sensitive | Punisher The |