Quick Browse
Movies
TV shows
Music
Games
Applications
Anime
Other

Advertising

Friends
Torrents.me
Torrent Download
Free Movies
1337x
RARBG
Torrent Downloads

Il Rinascimento - Federico da Montefeltro [XviD Ita Mp3] [TNTvillage]


    Seeders : 14      Leechers : 6

Warning! Do not Download Torrents Without a VPN!
Your IP Address is .   And Location is
Your Internet Provider and Government can track your torrent Activity!  Hide your IP ADDRESS with a VPN!
We Strongly Recommend Using SpyOFF Torrent VPN to Anonymize your Torrenting. It's FREE for 15 Days!

Note :

Please Update (Trackers Info) Before Downloading Torrents to See Updated Seeders And Leechers for Batter Download Speed.

Trackers List

Tracker NameLast CheckStatusSeedersLeechers




Torrent File Content (1 file)


     Il Rinascimento - 18 - Federico da Montefeltro.avi -
445.52 MB



Description



Il Rinascimento - 18 - Federico da Montefeltro [XviD Ita Mp3] [TNTvillage]

http://img52.imageshack.us/img52/3361/grande2.gif



FEDERICO DA MONTEFELTRO


http://img6.imageshack.us/img6/2998/cover2x.gif


http://img2.webster.it/MIT/455/8009044644555g.jpg



http://img59.imageshack.us/img59/7498/scheda2.gif


Ean: 8009044644555
Supporto: Dvd
Produttore: Cinehollywood
Genere: Storia, Documentari
Data uscita: 02/08/2010
Lingue: Italiano
Colori: Colori
Anno di produzione: 2010
Area: Area 2 (Europa/Giappone)
Durata: 52'
Sottotitoli: Italiano
Formato Audio: Dolby Digital 2.0 - stereo
Sistema: PAL



http://img156.imageshack.us/img156/2113/trama2.gif


Figura eclettica e ancora oggi magnetica, Federico da Montefeltro è uno fra i personaggi che hanno reso il Rinascimento epoca di rinnovamento e progresso. Nato a Gubbio nel giugno 1422, fu cultore del bello, umanista e mecenate capace di trasformare la corte di Urbino in un centro culturale attorno a cui ruotarono artisti e letterati. Uomo di fede incrollabile, brillò per la rapida carriera militare e per l'abilità politica. Oltre ad essere condottiero e statista, Federico mostrò di possedere anche grande umanità, interessandosi ai bisogni della gente e fondando il proprio governo sull'amore per i sudditi.



http://img28.imageshack.us/img28/5660/screen2d.gif


http://img34.imageshack.us/img34/8418/federeco1.png
http://img860.imageshack.us/img860/4403/federico2.png


http://img163.imageshack.us/img163/6528/federico3.png
http://img231.imageshack.us/img231/903/federico4.png


http://img851.imageshack.us/img851/3928/federico5.png
http://img217.imageshack.us/img217/8864/federico6.png




http://img52.imageshack.us/img52/7853/dati2.gif



General
Complete name : Il Rinascimento - 18 - Federico da Montefeltro.avi
Format : AVI
Format/Info : Audio Video Interleave
File size : 446 MiB
Duration : 52mn 21s
Overall bit rate : 1 189 Kbps
Writing application : VirtualDubMod 1.5.10.2 (build 2540/release)
Writing library : VirtualDubMod build 2540/release

Video
ID : 0
Format : MPEG-4 Visual
Format profile : Advanced [email protected]
Format settings, BVOP : Yes
Format settings, QPel : Yes
Format settings, GMC : No warppoints
Format settings, Matrix : Default (H.263)
Muxing mode : Packed bitstream
Codec ID : XVID
Codec ID/Hint : XviD
Duration : 52mn 21s
Bit rate : 1 020 Kbps
Width : 512 pixels
Height : 384 pixels
Display aspect ratio : 4:3
Frame rate : 25.000 fps
Resolution : 8 bits
Colorimetry : 4:2:0
Scan type : Progressive
Bits/(Pixel*Frame) : 0.207
Stream size : 382 MiB (86%)
Writing library : XviD 1.2.0SMP (UTC 2006-01-08)

Audio
ID : 1
Format : MPEG Audio
Format version : Version 1
Format profile : Layer 3
Format_Settings_Mode : Dual mono
Codec ID : 55
Codec ID/Hint : MP3
Duration : 52mn 21s
Bit rate mode : Constant
Bit rate : 160 Kbps
Channel(s) : 2 channels
Sampling rate : 48.0 KHz
Stream size : 59.9 MiB (13%)
Alignment : Aligned on interleaves
Interleave, duration : 40 ms (1.00 video frame)
Interleave, preload duration : 504 ms


Visit http://www.tntvillage.scambioetico.org/

Related torrents

Torrent NameAddedSizeSeedLeechHealth
4 months ago - in Other396.53 MB00
5 months ago - in Other843.61 MB00
1 Year+ - in Music669.24 MB00
1 Year+ - in Movies396.71 MB247
1 Year+ - in Movies1.36 GB1390

Note :

Feel free to post any comments about this torrent, including links to Subtitle, samples, screenshots, or any other relevant information. Please Dont Download anything from Comments, And Dont Post Links to Streaming Sites like Fmovies, Xmovies8, 123Movies, GoMovies, CMovieshd, Solarmovie, Watchfree, Putlockers, GoStream, m4ufree etc.

Comments (0 Comments)




Please login or create a FREE account to post comments

Latest Searches

| ATKExotics 17 09 28 Esperanza Del Horno Toys XXX 1080p MP4 KTR | c e h what you wont | fat guys S02E07 | vishwaroopam telugu 2013 | Crosby Stills Nash Young Greatest Hits | trap time | triple adriana | vietnamese 2017 | Holly Price realwifestories | T I ft kanye |