Quick Browse
Movies
TV shows
Music
Games
Applications
Anime
Other
Facebook
Advertising

Friends
Torrent Download
Movie4u
1337x.to
Torrent Downloads




Il Rinascimento - I Medici, il potere contro la verita' [Xvid Ita Mp3] [TNTvillage]


    Seeders : 24      Leechers : 7

Trackers List

Tracker NameLast CheckStatusSeedersLeechers




Torrent File Content (1 file)


     Il Rinascimento - 04 - Il potere contro la verita'.avi -
396.71 MB



Description



Il Rinascimento - I Medici, il potere contro la verita' [Xvid Ita Mp3] [TNTvillage]

http://img52.imageshack.us/img52/3361/grande2.gif



I MEDICI

04. IL POTERE CONTRO LA VERITÀ


http://img6.imageshack.us/img6/2998/cover2x.gif


http://www.mediashopping.it/is-bin/intershop.static/WFS/MSH-Site/MSH/it_IT/360/000/000/000/000/235/235957_O.jpg



http://img59.imageshack.us/img59/7498/scheda2.gif


Titolo: Medici (I) - I Papi Medicei / Il Potere Contro La Verità
Produttore: CineHollywood
Genere: Documentario
Anno di produzione: 2007
Durata: 125
Vietato ai minori: T
Anno di produzione: a colori
Codice area: Area 0 (All)
Lingue: Inglese, Italiano
Sottotitoli: Italiano;Inglese
Formato video: 4:3



http://img156.imageshack.us/img156/2113/trama2.gif


Documentario sulla famiglia simbolo del Rinascimento Italiano. Realizzato in Toscana e Marche con la participazione di 10.000 comparse racconta, come mai prima d'ora, 400 anni di storia di una dinastia tra le piú potenti e influenti d'Italia. Il DVD si divide in due parti: I Papi medicei (03) e il Potere contro la verità (04).



http://img28.imageshack.us/img28/5660/screen2d.gif


http://img69.imageshack.us/img69/2313/potere1.png
http://img6.imageshack.us/img6/8223/potere2.png


http://img402.imageshack.us/img402/6156/potere3.png
http://img851.imageshack.us/img851/5166/potere4.png


http://img42.imageshack.us/img42/9152/potere5.png
http://img852.imageshack.us/img852/8899/potere6.png




http://img52.imageshack.us/img52/7853/dati2.gif



General
Complete name : Il Rinascimento - 04 - Il potere contro la verita'.avi
Format : AVI
Format/Info : Audio Video Interleave
File size : 397 MiB
Duration : 55mn 19s
Overall bit rate : 1 003 Kbps
Writing application : VirtualDubMod 1.5.10.2 (build 2540/release)
Writing library : VirtualDubMod build 2540/release

Video
ID : 0
Format : MPEG-4 Visual
Format profile : Advanced [email protected]
Format settings, BVOP : Yes
Format settings, QPel : Yes
Format settings, GMC : No warppoints
Format settings, Matrix : Default (H.263)
Muxing mode : Packed bitstream
Codec ID : XVID
Codec ID/Hint : XviD
Duration : 55mn 19s
Bit rate : 865 Kbps
Width : 512 pixels
Height : 384 pixels
Display aspect ratio : 4:3
Frame rate : 25.000 fps
Resolution : 8 bits
Colorimetry : 4:2:0
Scan type : Progressive
Bits/(Pixel*Frame) : 0.176
Stream size : 342 MiB (86%)
Writing library : XviD 1.2.0SMP (UTC 2006-01-08)

Audio
ID : 1
Format : MPEG Audio
Format version : Version 1
Format profile : Layer 3
Format_Settings_Mode : Dual mono
Codec ID : 55
Codec ID/Hint : MP3
Duration : 55mn 19s
Bit rate mode : Constant
Bit rate : 128 Kbps
Channel(s) : 2 channels
Sampling rate : 48.0 KHz
Stream size : 50.6 MiB (13%)
Alignment : Aligned on interleaves
Interleave, duration : 40 ms (1.00 video frame)
Interleave, preload duration : 504 ms


Visit http://www.tntvillage.scambioetico.org/

Related torrents

Torrent NameAddedSizeSeedLeechHealth
Verified torrent
1 Year+ - in TV shows899.72 MB00
1 Year+ - in Other228.38 MB413
1 Year+ - in Movies699.98 MB00
11 months ago - in Movies1.58 GB00
1 Year+ - in Movies700.94 MB00

Comments (0 Comments)




Please login or create a FREE account to post comments

Latest Searches

| Two and a Half Men Season 1 2 3 4 5 6 7 8 9 | puli dual audio | jyk Inferno | el patron del mal cap 71 | The Blacklist Season 4 Episode 1 | S Beckett | bloopers 1994 | TeamSkeet Natty Mellow Que Afortunado | Clubland 100 | defiance s01e02 480p hdtv x264 sm |