Quick Browse
Movies
TV shows
Music
Games
Applications
Anime
Other

Advertising

Friends
Torrents.me
Torrent Download
Free Movies
1337x
RARBG
Torrent Downloads

Il Rinascimento - I Medici, il potere contro la verita' [Xvid Ita Mp3] [TNTvillage]


    Seeders : 24      Leechers : 7

Warning! Do not Download Torrents Without a VPN!
Your IP Address is .   And Location is
Your Internet Provider and Government can track your torrent Activity!  Hide your IP ADDRESS with a VPN!
We Strongly Recommend Using SpyOFF Torrent VPN to Anonymize your Torrenting. It's FREE for 15 Days!

Note :

Please Update (Trackers Info) Before Downloading Torrents to See Updated Seeders And Leechers for Batter Download Speed.

Trackers List

Tracker NameLast CheckStatusSeedersLeechers




Torrent File Content (1 file)


     Il Rinascimento - 04 - Il potere contro la verita'.avi -
396.71 MB



Description



Il Rinascimento - I Medici, il potere contro la verita' [Xvid Ita Mp3] [TNTvillage]

http://img52.imageshack.us/img52/3361/grande2.gif



I MEDICI

04. IL POTERE CONTRO LA VERITÀ


http://img6.imageshack.us/img6/2998/cover2x.gif


http://www.mediashopping.it/is-bin/intershop.static/WFS/MSH-Site/MSH/it_IT/360/000/000/000/000/235/235957_O.jpg



http://img59.imageshack.us/img59/7498/scheda2.gif


Titolo: Medici (I) - I Papi Medicei / Il Potere Contro La Verità
Produttore: CineHollywood
Genere: Documentario
Anno di produzione: 2007
Durata: 125
Vietato ai minori: T
Anno di produzione: a colori
Codice area: Area 0 (All)
Lingue: Inglese, Italiano
Sottotitoli: Italiano;Inglese
Formato video: 4:3



http://img156.imageshack.us/img156/2113/trama2.gif


Documentario sulla famiglia simbolo del Rinascimento Italiano. Realizzato in Toscana e Marche con la participazione di 10.000 comparse racconta, come mai prima d'ora, 400 anni di storia di una dinastia tra le piú potenti e influenti d'Italia. Il DVD si divide in due parti: I Papi medicei (03) e il Potere contro la verità (04).



http://img28.imageshack.us/img28/5660/screen2d.gif


http://img69.imageshack.us/img69/2313/potere1.png
http://img6.imageshack.us/img6/8223/potere2.png


http://img402.imageshack.us/img402/6156/potere3.png
http://img851.imageshack.us/img851/5166/potere4.png


http://img42.imageshack.us/img42/9152/potere5.png
http://img852.imageshack.us/img852/8899/potere6.png




http://img52.imageshack.us/img52/7853/dati2.gif



General
Complete name : Il Rinascimento - 04 - Il potere contro la verita'.avi
Format : AVI
Format/Info : Audio Video Interleave
File size : 397 MiB
Duration : 55mn 19s
Overall bit rate : 1 003 Kbps
Writing application : VirtualDubMod 1.5.10.2 (build 2540/release)
Writing library : VirtualDubMod build 2540/release

Video
ID : 0
Format : MPEG-4 Visual
Format profile : Advanced [email protected]
Format settings, BVOP : Yes
Format settings, QPel : Yes
Format settings, GMC : No warppoints
Format settings, Matrix : Default (H.263)
Muxing mode : Packed bitstream
Codec ID : XVID
Codec ID/Hint : XviD
Duration : 55mn 19s
Bit rate : 865 Kbps
Width : 512 pixels
Height : 384 pixels
Display aspect ratio : 4:3
Frame rate : 25.000 fps
Resolution : 8 bits
Colorimetry : 4:2:0
Scan type : Progressive
Bits/(Pixel*Frame) : 0.176
Stream size : 342 MiB (86%)
Writing library : XviD 1.2.0SMP (UTC 2006-01-08)

Audio
ID : 1
Format : MPEG Audio
Format version : Version 1
Format profile : Layer 3
Format_Settings_Mode : Dual mono
Codec ID : 55
Codec ID/Hint : MP3
Duration : 55mn 19s
Bit rate mode : Constant
Bit rate : 128 Kbps
Channel(s) : 2 channels
Sampling rate : 48.0 KHz
Stream size : 50.6 MiB (13%)
Alignment : Aligned on interleaves
Interleave, duration : 40 ms (1.00 video frame)
Interleave, preload duration : 504 ms


Visit http://www.tntvillage.scambioetico.org/

Related torrents

Torrent NameAddedSizeSeedLeechHealth
4 months ago - in Other695.79 MB00
Verified torrent
1 Year+ - in TV shows899.72 MB00
1 Year+ - in Other228.38 MB413
1 Year+ - in Movies1.58 GB00
1 Year+ - in Movies700.94 MB00

Note :

Feel free to post any comments about this torrent, including links to Subtitle, samples, screenshots, or any other relevant information. Please Dont Download anything from Comments, And Dont Post Links to Streaming Sites like Fmovies, Xmovies8, 123Movies, GoMovies, CMovieshd, Solarmovie, Watchfree, Putlockers, GoStream, m4ufree etc.

Comments (0 Comments)




Please login or create a FREE account to post comments

Latest Searches

| storytelling drawing | restaurant redemption s01e04 | Freezer 2014 1080p | Isabel Dark Fill That Pussy | Blk Diamond | take the world by the storm | Marvels The Punisher S01 1080p DD5 1 x264 NTb | Hustler XXX 28 | Punyalan Private Limited 2017Malayalam HQ Real DVDScr x264 700MB | one tree hill pilot s01e01 |