Quick Browse
Movies
TV shows
Music
Games
Applications
Anime
Other
Facebook
Advertising

Friends
Torrent Download
Movie4u
1337x.to
Torrent Downloads




Il Rinascimento - I Medici, nascita di una dinastia [Xvid Ita Mp3] [TNTvillage]


    Seeders : 14      Leechers : 6

Trackers List

Tracker NameLast CheckStatusSeedersLeechers




Torrent File Content (1 file)


     Il Rinascimento - 01 - I Medici, nascita di una dinastia.avi -
399.84 MB



Description



Il Rinascimento - I Medici, nascita di una dinastia [Xvid Ita Mp3] [TNTvillage]

http://img52.imageshack.us/img52/3361/grande2.gif



I MEDICI

01. NASCITA DI UNA DINASTIA


http://img6.imageshack.us/img6/2998/cover2x.gif


http://images.eprice.it/images/Prodotti/dettaglioMulti/0/257/100085257/Lightbox/100085257-000.JPG



http://img59.imageshack.us/img59/7498/scheda2.gif


Titolo: Medici (I) - Nascita Di Una Dinastia / Lorenzo Il Magnifico
Produttore: CineHollywood
Genere: Documentario
Anno di produzione: 2007
Durata: 125
Vietato ai minori: T
Anno di produzione: a colori
Codice area: Area 0 (All)
Lingue: Inglese, Italiano
Sottotitoli: Italiano;Inglese
Formato video: 4:3




http://img156.imageshack.us/img156/2113/trama2.gif


Documentario sulla famiglia simbolo del Rinascimento Italiano. Realizzato in Toscana e Marche con la participazione di 10.000 comparse racconta, come mai prima d'ora, 400 anni di storia di una dinastia tra le piú potenti e influenti d'Italia. Il DVD si divide in due parti: Nascita di una dinastia, da piccoli banchieri a potenti signori di Firenze (01). Poi l'attenzione è focalizzata Lorenzo il Magnifico, figura carismatica, protettore delle arti, poeta e uomo chiave della rinascita culturale di quell'epoca (02).



http://img28.imageshack.us/img28/5660/screen2d.gif


http://img830.imageshack.us/img830/6843/imedici1.png
http://img190.imageshack.us/img190/892/imedici2.png


http://img200.imageshack.us/img200/4702/imedici3.png
http://img811.imageshack.us/img811/5584/imedici4.png


http://img834.imageshack.us/img834/3122/imedici5.png
http://img819.imageshack.us/img819/763/imedici6.png




http://img52.imageshack.us/img52/7853/dati2.gif



General
Complete name : Il Rinascimento - 01 - I Medici, nascita di una dinastia.avi
Format : AVI
Format/Info : Audio Video Interleave
File size : 400 MiB
Duration : 55mn 12s
Overall bit rate : 1 013 Kbps
Writing application : VirtualDubMod 1.5.10.2 (build 2540/release)
Writing library : VirtualDubMod build 2540/release

Video
ID : 0
Format : MPEG-4 Visual
Format profile : Advanced [email protected]
Format settings, BVOP : No
Format settings, QPel : No
Format settings, GMC : No warppoints
Format settings, Matrix : Default (H.263)
Codec ID : XVID
Codec ID/Hint : XviD
Duration : 55mn 12s
Bit rate : 875 Kbps
Width : 512 pixels
Height : 368 pixels
Display aspect ratio : 1.391
Frame rate : 25.000 fps
Resolution : 8 bits
Colorimetry : 4:2:0
Scan type : Progressive
Bits/(Pixel*Frame) : 0.186
Stream size : 345 MiB (86%)
Writing library : XviD 1.2.0SMP (UTC 2006-01-08)

Audio
ID : 1
Format : MPEG Audio
Format version : Version 1
Format profile : Layer 3
Format_Settings_Mode : Dual mono
Codec ID : 55
Codec ID/Hint : MP3
Duration : 55mn 12s
Bit rate mode : Constant
Bit rate : 128 Kbps
Channel(s) : 2 channels
Sampling rate : 48.0 KHz
Stream size : 50.5 MiB (13%)
Alignment : Aligned on interleaves
Interleave, duration : 40 ms (1.00 video frame)
Interleave, preload duration : 504 ms


Visit http://www.tntvillage.scambioetico.org/

Related torrents

Torrent NameAddedSizeSeedLeechHealth
Verified torrent
1 Year+ - in TV shows899.17 MB00
Verified torrent
1 Year+ - in Movies350.62 MB348
Verified torrent
1 Year+ - in Movies1.41 GB93
1 Year+ - in Anime2.49 GB413
1 Year+ - in Anime2.95 GB310

Comments (0 Comments)




Please login or create a FREE account to post comments

Latest Searches

| The Rescuers L | louis saint | 25 greatest r b | N Photo UK December 2016 | You Have to F g Eat | rocky horror show | 00023 MTS | SEXY TRINA | the challenger 2013 bdrip x264 infidel | switchsniffer 1 4 2 |