Quick Browse
TV shows

Latest Articles

Torrent Download
Free Movies
Torrent Downloads

Verified torrent Il corsaro nero - Bud Spencer - Terence Hill [Divx - Ita Mp3] [TNT Village]

    Seeders : 54      Leechers : 16

Warning! Do not Download Torrents Without a VPN!
Your IP Address is .   And Location is
Your Internet Provider and Government can track your torrent Activity!  Hide your IP ADDRESS with a VPN!
We Strongly Recommend Using CyberGhost VPN to Anonymize your Torrenting.

Note :

Please Update (Trackers Info) Before Downloading Torrents to See Updated Seeders And Leechers for Batter Download Speed.

Trackers List

Tracker NameLast CheckStatusSeedersLeechers

Torrent File Content (1 file)

     [DivX - ITA] - IL C0RS4R0 N3R0 - DvDRip.avi -
728.94 MB





Paese Spagna/Italia/Francia
Anno 1971
Durata 99 min
Colore colore
Audio sonoro
Genere commedia, azione, avventura
Regia Lorenzo Gicca Palli
Soggetto Lorenzo Gicca Palli
Sceneggiatura George Martin
Fotografia Jaime Deu Casas
Montaggio Romeo Ciatti
Musiche Gino Peguri

Interpreti e personaggi

Terence Hill: Blackie
Bud Spencer: Skull
Silvia Monti: Isabel de Mendoza y Laguna
George Martin: Don Pedro
Diana Lorys: Manuela
Mónica Randall: Carmen
Salvatore Borghese: Martin
Fernando Bilbao: Moko
Edmund Purdom: il viceré
Gustavo Re: Montbarque
Luciano Catenacci: Jay
Carlo Reali: Delussac


Il Capitano Blackie (Terence Hill), pirata britannico, vorrebbe assaltare la nave che porta l'oro dalle colonie spagnole alla madrepatria iberica. Ma non è l'unico, altri pirati infatti perseguono lo stesso intento. Quando però si scopre che la nave non contiene l'oro, ma trasporta la moglie del viceré della colonia, Blackie decide di rapirla al fine di chiedere un forte riscatto. Anche Skull (Bud Spencer) però vorrebbe la donna per aver l'oro, ecco che quindi si allea con i pirati rivali di Blackie.


Format : AVI
Format/Info : Audio Video Interleave
File size : 729 MiB
Duration : 1h 38mn
Overall bit rate : 1 031 Kbps

ID : 0
Format : MPEG-4 Visual
Format settings, BVOP : Yes
Format settings, QPel : No
Format settings, GMC : No warppoints
Format settings, Matrix : Default (H.263)
Codec ID : DX50
Codec ID/Hint : DivX 5
Duration : 1h 38mn
Bit rate : 829 Kbps
Width : 720 pixels
Height : 288 pixels
Display aspect ratio : 2.500
Frame rate : 25.000 fps
Color space : YUV
Chroma subsampling : 4:2:0
Bit depth : 8 bits
Scan type : Progressive
Bits/(Pixel*Frame) : 0.160
Stream size : 586 MiB (80%)
Writing library : DivX 5.1.1 (Maupiti) (UTC 2003-11-19)

ID : 1
Format : MPEG Audio
Format version : Version 1
Format profile : Layer 3
Mode : Joint stereo
Mode extension : MS Stereo
Codec ID : 55
Codec ID/Hint : MP3
Duration : 1h 38mn
Bit rate mode : Constant
Bit rate : 192 Kbps
Channel(s) : 2 channels
Sampling rate : 48.0 KHz
Stream size : 136 MiB (19%)
Alignment : Split accross interleaves
Interleave, duration : 40 ms (1.00 video frame)
Interleave, preload duration : 500 ms




Related torrents

Torrent NameAddedSizeSeedLeechHealth
1 Year+ - in Movies1.37 GB00
Verified torrent
1 Year+ - in TV shows4.94 GB11
6 months ago - in Other66.74 MB00
6 months ago - in Movies2.98 GB00
6 months ago - in Movies1.98 GB00

Note :

Feel free to post any comments about this torrent, including links to Subtitle, samples, screenshots, or any other relevant information. Please Dont Download anything from Comments, And Dont Post Links to Streaming Sites like Fmovies, Xmovies8, 123Movies, GoMovies, CMovieshd, Solarmovie, Watchfree, Putlockers, GoStream, m4ufree etc.

Comments (0 Comments)

Please login or create a FREE account to post comments

Latest Searches

| the magic by | the concert george | George Ezra Staying at Tamara s | first anal quest lolly | te again | tupac never be peace | drama | princess and warrior | Santa Clarita Diet S02E07 | 1lb |