Quick Browse
Movies
TV shows
Music
Games
Applications
Anime
Other
Facebook
Advertising

Friends
Torrent Download
Movie4u
1337x.to
Torrent Downloads




Verified torrent Il corsaro nero - Bud Spencer - Terence Hill [Divx - Ita Mp3] [TNT Village]


    Seeders : 54      Leechers : 16

Trackers List

Tracker NameLast CheckStatusSeedersLeechers




Torrent File Content (1 file)


     [DivX - ITA] - IL C0RS4R0 N3R0 - DvDRip.avi -
728.94 MB



Description



http://img507.imageshack.us/img507/4663/locandinan.png


http://img707.imageshack.us/img707/2528/l9149006695080c293c0.jpg


http://img180.imageshack.us/img180/8228/schedafilm.png


Paese Spagna/Italia/Francia
Anno 1971
Durata 99 min
Colore colore
Audio sonoro
Genere commedia, azione, avventura
Regia Lorenzo Gicca Palli
Soggetto Lorenzo Gicca Palli
Sceneggiatura George Martin
Fotografia Jaime Deu Casas
Montaggio Romeo Ciatti
Musiche Gino Peguri

Interpreti e personaggi

Terence Hill: Blackie
Bud Spencer: Skull
Silvia Monti: Isabel de Mendoza y Laguna
George Martin: Don Pedro
Diana Lorys: Manuela
Mónica Randall: Carmen
Salvatore Borghese: Martin
Fernando Bilbao: Moko
Edmund Purdom: il viceré
Gustavo Re: Montbarque
Luciano Catenacci: Jay
Carlo Reali: Delussac


http://img443.imageshack.us/img443/7394/tramaf.png


Il Capitano Blackie (Terence Hill), pirata britannico, vorrebbe assaltare la nave che porta l'oro dalle colonie spagnole alla madrepatria iberica. Ma non è l'unico, altri pirati infatti perseguono lo stesso intento. Quando però si scopre che la nave non contiene l'oro, ma trasporta la moglie del viceré della colonia, Blackie decide di rapirla al fine di chiedere un forte riscatto. Anche Skull (Bud Spencer) però vorrebbe la donna per aver l'oro, ecco che quindi si allea con i pirati rivali di Blackie.

http://img838.imageshack.us/img838/7286/datifile.png


Format : AVI
Format/Info : Audio Video Interleave
File size : 729 MiB
Duration : 1h 38mn
Overall bit rate : 1 031 Kbps

Video
ID : 0
Format : MPEG-4 Visual
Format settings, BVOP : Yes
Format settings, QPel : No
Format settings, GMC : No warppoints
Format settings, Matrix : Default (H.263)
Codec ID : DX50
Codec ID/Hint : DivX 5
Duration : 1h 38mn
Bit rate : 829 Kbps
Width : 720 pixels
Height : 288 pixels
Display aspect ratio : 2.500
Frame rate : 25.000 fps
Color space : YUV
Chroma subsampling : 4:2:0
Bit depth : 8 bits
Scan type : Progressive
Bits/(Pixel*Frame) : 0.160
Stream size : 586 MiB (80%)
Writing library : DivX 5.1.1 (Maupiti) (UTC 2003-11-19)

Audio
ID : 1
Format : MPEG Audio
Format version : Version 1
Format profile : Layer 3
Mode : Joint stereo
Mode extension : MS Stereo
Codec ID : 55
Codec ID/Hint : MP3
Duration : 1h 38mn
Bit rate mode : Constant
Bit rate : 192 Kbps
Channel(s) : 2 channels
Sampling rate : 48.0 KHz
Stream size : 136 MiB (19%)
Alignment : Split accross interleaves
Interleave, duration : 40 ms (1.00 video frame)
Interleave, preload duration : 500 ms

http://img340.imageshack.us/img340/3671/screenshoots.png


http://img560.imageshack.us/img560/2029/vlcsnap2010111410h25m04.png


http://img231.imageshack.us/img231/5337/vlcsnap2010111410h25m23.png


Related torrents

Torrent NameAddedSizeSeedLeechHealth
1 Year+ - in Movies1.37 GB00
Verified torrent
1 Year+ - in TV shows4.94 GB10
Last Month - in Movies27.13 GB910
1 Year+ - in Movies14.66 GB00
1 Year+ - in Movies14.66 GB00

Comments (0 Comments)




Please login or create a FREE account to post comments

Latest Searches

| SWEDiSH 720p BluRay x264 | rihanna drake anti | suicide squad sbs 3d | tile install | james bond 05b casino royale 1967 pal dvd en de fr it es mul | Primals FANTASIES Casey Calvert | all I ever eed | black sails s02e10 xviii 1080p web dl dd5 1 x265 hevc psa | Rig Pro 5 | pc game The Simpsons Hit And Run |