Quick Browse
Movies
TV shows
Music
Games
Applications
Anime
Other
Facebook
Friends
Torrent Download
Free Movies
1337x.to
Torrent Downloads

Verified torrent Immortals (2011) DVDRip XviD-MAXSPEED


    Seeders : 39      Leechers : 10
Hash :5F24C1756C92592BAF931A8FC803FC9E37BE879D
Added :1 Year+ by piratepediaVerified torrent uploader in Movies
Size :1.32 GB
Stream :Watch Full Movies Online @ Movie4u
Share :


Immortals (2011) DVDRip XviD-MAXSPEED
Anonymous and Direct Download 300GB+ free







Warning! Do not Download Torrents Without a VPN!
Your IP Address is .   And Location is
Your Internet Provider and Government can track your torrent Activity!  Hide your IP ADDRESS with a VPN!
We Strongly Recommend Using OneVPN’s Torrent VPN to Anonymize your Torrenting. It's Very Cheap!

Note :

Please Update (Trackers Info) Before Downloading Torrents to See Updated Seeders And Leechers for Batter Download Speed.

Trackers List

Tracker NameLast CheckStatusSeedersLeechers
udp://tracker.coppersurfer.tk:803 months agosuccess3910
udp://tracker.ilibr.org:6969/announce3 months agosuccess3910
http://tracker.trackerfix.com/announce3 months agosuccess53
udp://9.rarbg.com:2710/announce3 months agosuccess57
udp://ipv4.tracker.harry.lu:80/announce3 months agosuccess24
http://torrent-tracker.ru/announce.php3 months agosuccess00




Torrent File Content (8 files)


Immortals (2011) DVDRip XviD-MAXSPEED
     Immortals (2011) DVDRip XviD-MAXSPEED www.torentz.3xforum.ro.avi -
1.31 GB

     sample.avi -
8.51 MB

     screencaps.jpeg -
121.23 KB

     Immortals (2011) DVDRip XviD-MAXSPEED.nfo -
2.63 KB

     Torrent downloaded from Demonoid.me.txt -
46 bytes

     Torrent downloaded from Extratorrent.com.txt -
40 bytes

     Torrent downloaded from Rarbg.com.txt -
33 bytes

     Torrent downloaded from h33t.com.txt -
32 bytes



Description



http://www.hotimg.com/direct/PWaFpWE.jpg


Screens:

http://www.hotimg.com/direct/jWCUU5t.jpg

http://www.hotimg.com/direct/3eFwJXD.jpg

http://www.hotimg.com/direct/5F69cFA.jpg

http://www.hotimg.com/direct/ubJtw3F.jpg


Alternative:

[code]http://www.postimg.com/image/61000/photo-60004.jpg
http://www.postimg.com/image/61000/photo-60005.jpg
http://www.postimg.com/image/61000/photo-60006.jpg
http://www.postimg.com/image/61000/photo-60007.jpg[/code]

ScreenCaps:

http://www.postimg.com/61000/photo-60002.jpg


[code]Immortals (2011) DVDRip XviD-MAXSPEED
Format : AVI
Format/Info : Audio Video Interleave
Format profile : OpenDML
File size : 1.31 GiB
Duration : 1h 50mn
Overall bit rate : 1 698 Kbps
Writing application : VirtualDubMod 1.5.10.2 (build 2542/release)
Writing library : VirtualDubMod build 2542/release
Original source form : MAX TORRENTZ
Copyright : SIGISMUNT

Video
ID : 0
Format : MPEG-4 Visual
Format profile : [email protected]
Format settings, BVOP : Yes
Format settings, QPel : No
Format settings, GMC : No warppoints
Format settings, Matrix : Default (H.263)
Codec ID : XVID
Codec ID/Hint : XviD
Duration : 1h 50mn
Bit rate : 1 245 Kbps
Width : 720 pixels
Height : 384 pixels
Display aspect ratio : 1.875
Frame rate : 23.976 fps
Resolution : 24 bits
Colorimetry : 4:2:0
Scan type : Progressive
Bits/(Pixel*Frame) : 0.188
Stream size : 983 MiB (73%)
Writing library : XviD 1.2.1 (UTC 2008-12-04)

Audio
ID : 1
Format : AC-3
Format/Info : Audio Coding 3
Codec ID : 2000
Duration : 1h 50mn
Bit rate mode : Constant
Bit rate : 448 Kbps
Channel(s) : 6 channels
Channel positions : Front: L C R, Surround: L R, LFE
Sampling rate : 48.0 KHz
Stream size : 354 MiB (26%)
Alignment : Aligned on interleaves
Interleave, duration : 64 ms (1.53 video frames)
Interleave, preload duration : 192 ms

Source: DVD (perfect a/v/sync quality,sample included)
This torrent is not seedbox supported,please seed it to the MAX

Note: We need anything you can offer as early releases,seedboxes,links,accounts,etc
please contact us on piratepedia[@]msn/gmail.com or our website torentz 3xforum ro

How To Get Your Maxspeed (uTorrent)

Torrent Client - Preferences - Bandwidth - Number of connections - Set aprox. 500 for each
Torrent Client - Preferences - BiTorrent - Protocol Encryption - Forced
Bandwidth Allocation - High (Set download/upload limit - Unlimited)
Stop Other Active Torrents - Start downloading and wait for connections.
Enjoy and Seed for at least 1:1 ratio. Don't forget to say thanks/leave reviews.
Before downloading you should check/google search sample "release name""sample".
Greets to all actual/future p2p/scene QUALITY groups and affiliate websites.
Don't trust IMDb robot or bad ratings,always watch some trailers first.
Ignore stupid comments/fake/mislabeled/no-DVDrips/CAM/TS/RAR uploads.
Please spread this release/torrent to your friends/forums/etc.
If you need translation subs visit some subtitles sites.
Report if you see online streaming or other spam links.
Recommended movie player VLC PLAYER.[/code]

Related torrents

Torrent NameAddedSizeSeedLeechHealth
1 Year+ - in Movies1.32 GB04
1 Year+ - in Movies1.31 GB00
1 Year+ - in Movies1.31 GB00
3 months ago - in Movies1.62 GB00
3 months ago - in Movies866.47 MB00

Comments (1 comment)




BAMF
» Voted Good Voted Good for this torrent for this torrent

Added 1 Year+
You have to download a crapy player!
Please login or create a FREE account to post comments

Latest Searches

| Shrima Malati Seductive Ukrainian Gets | downward dog 1 | jealous nick jonas | girls the 1975 | Robert violin | dr dre the 1992 | neyosingle | bates motel season 1 2 3 4 5 | g l o s s we live | T I bottles up |