Quick Browse
Movies
TV shows
Music
Games
Applications
Anime
Other
Facebook
Advertising

Friends
Torrent Download
Movie4u
1337x.to
Torrent Downloads




Verified torrent In Time (2011) DVDRip XviD-MAXSPEED


    Seeders : 0      Leechers : 0
Hash :CB8DC1959BEE01E714F9F082DE5ABF7D0BC005EE
Added :1 Year+ by piratepediaVerified torrent uploader in Movies
Size :1.32 GB
Stream :WATCH ONLINE @ Movie4u


In Time (2011) DVDRip XviD-MAXSPEED
Free and Fast Download with Usenet 300GB+ free







Trackers List

Tracker NameLast CheckStatusSeedersLeechers
udp://open.demonii.com:1337/announce1 Year+success00




Torrent File Content (8 files)


In Time (2011) DVDRip XviD-MAXSPEED
     In Time (2011) DVDRip XviD-MAXSPEED www.torentz.3xforum.ro.avi -
1.31 GB

     In Time (2011) DVDRip XviD-MAXSPEED.nfo -
2.55 KB

     Torrent downloaded from Demonoid.me.txt -
46 bytes

     Torrent downloaded from Extratorrent.com.txt -
40 bytes

     Torrent downloaded from Rarbg.com.txt -
33 bytes

     Torrent downloaded from h33t.com.txt -
32 bytes

     sample.avi -
8.84 MB

     screencaps.jpeg -
530.6 KB



Description



http://www.hotimg.com/direct/BvHt28y.jpg


Screens:

http://www.hotimg.com/direct/dtn8Ra2.jpg

http://www.hotimg.com/direct/GQ7xPY5.jpg

http://www.hotimg.com/direct/DF7rQZX.jpg

http://www.hotimg.com/direct/8D9TYxY.jpg


Alternative:

[code]http://www.postimg.com/image/58000/photo-57723.jpg
http://www.postimg.com/image/58000/photo-57724.jpg
http://www.postimg.com/image/58000/photo-57725.jpg
http://www.postimg.com/image/58000/photo-57726.jpg[/code]

ScreenCaps:

http://www.postimg.com/58000/photo-57727.jpg


[code]In Time (2011) DVDRip XviD-MAXSPEED
Format : AVI
Format/Info : Audio Video Interleave
Format profile : OpenDML
File size : 1.30 GiB
Duration : 1h 49mn
Overall bit rate : 1 714 Kbps
Writing application : VirtualDubMod 1.5.10.2 (build 2542/release)
Writing library : VirtualDubMod build 2542/release
Original source form : MAX TORRENTZ
Copyright : SIGISMUNT

Video
ID : 0
Format : MPEG-4 Visual
Format profile : [email protected]
Format settings, BVOP : Yes
Format settings, QPel : No
Format settings, GMC : No warppoints
Format settings, Matrix : Default (H.263)
Codec ID : XVID
Codec ID/Hint : XviD
Duration : 1h 49mn
Bit rate : 1 325 Kbps
Width : 640 pixels
Height : 272 pixels
Display aspect ratio : 2.35:1
Frame rate : 23.976 fps
Resolution : 24 bits
Colorimetry : 4:2:0
Scan type : Progressive
Bits/(Pixel*Frame) : 0.318
Stream size : 1.01 GiB (77%)
Writing library : XviD 61

Audio
ID : 1
Format : AC-3
Format/Info : Audio Coding 3
Codec ID : 2000
Duration : 1h 49mn
Bit rate mode : Constant
Bit rate : 384 Kbps
Channel(s) : 6 channels
Channel positions : Front: L C R, Surround: L R, LFE
Sampling rate : 48.0 KHz
Stream size : 300 MiB (22%)
Alignment : Aligned on interleaves
Interleave, duration : 64 ms (1.54 video frames)
Interleave, preload duration : 192 ms

Source: DVD (perfect a/v/sync quality,sample included)
This torrent is not seedbox supported,please seed it to the MAX

Note:If you have something to offer as early releases,seedboxes,links,accounts,etc
please contact us on piratepedia[@]msn/gmail.com or our website torentz 3xforum ro

How To Get Your Maxspeed (uTorrent)

Torrent Client - Preferences - Bandwidth - Number of connections - Set aprox. 500 for each
Torrent Client - Preferences - BiTorrent - Protocol Encryption - Forced
Bandwidth Allocation - High (Set download/upload limit - Unlimited)
Stop Other Active Torrents - Start downloading and wait for connections.
Enjoy and Seed for at least 1:1 ratio. Don't forget to say thanks/leave reviews.
Before downloading you should check/google search sample "release name""sample".
Greets to all actual/future p2p/scene QUALITY groups and affiliate websites.
Don't trust IMDb robot or bad ratings,always watch some trailers first.
Ignore stupid comments/fake/mislabeled/no-DVDrips/CAM/TS/RAR uploads.
Please spread this release/torrent to your friends/forums/etc.
If you need translation subs visit some subtitles sites.
Report if you see online streaming or other spam links.
Recommended movie player VLC PLAYER.[/code]

Related torrents

Torrent NameAddedSizeSeedLeechHealth
Last Month - in Movies2.67 GB3051
5 months ago - in Movies610.44 MB00
6 months ago - in Movies1.2 GB00
7 months ago - in Other1.78 GB00
Verified torrent
1 Year+ - in Movies932.56 MB20

Comments (1 comment)




eddiejb19
» Voted Good Voted Good for this torrent for this torrent

Added 1 Year+
no sound playing
Please login or create a FREE account to post comments

Latest Searches

| Drake The Crew | FakeAgent Lola Rae Blonde likes cock between her tits 12 03 16 720p | iron man scene | R Ka | best dance hits winter | 80sgigahits | Sucker For Pain Lil Wayne Imagine Dragons | hack | maximum perversum starke fotzen hart gefickt german dvdrip xvid avi | wanted chanel preston 1080p mp4 |