Quick Browse
Movies
TV shows
Music
Games
Applications
Anime
Other
Facebook
Advertising

Friends
Torrent Download
Movie4u
1337x.to
Torrent Downloads




Verified torrent In Time 2011 TS XviD READNFO - MiSTERE


    Seeders : 530      Leechers : 3114
Hash :BABFD95DCD8B80B008DEBE596833C3F9667C47F6
Added :1 Year+ by memory100Verified torrent uploader in Movies
Size :1.39 GB
Stream :WATCH ONLINE @ Movie4u


In Time 2011 TS XviD READNFO - MiSTERE
Free and Fast Download with Usenet 300GB+ free







Trackers List

Tracker NameLast CheckStatusSeedersLeechers




Torrent File Content (8 files)


In Time 2011 TS XviD READNFO - MiSTERE
     HDSceneRG.txt -
115 bytes

     In Time 2011 TS XviD READNFO - MiSTERE.avi -
1.37 GB

     In Time 2011 TS XviD READNFO - MiSTERE.nfo -
2.32 KB

     Torrent downloaded from Demonoid.me.txt -
46 bytes

     Torrent downloaded from Suprnova.me.txt -
42 bytes

     att-networks.com.txt -
39 bytes

     sample.avi -
15.6 MB

     sceneunderground.org.txt -
77 bytes



Description




[code]
In Time 2011 TS XviD READNFO - MiSTERE

http://www.imdb.com/title/tt1637688/


Video
ID : 0
Format : MPEG-4 Visual
Format profile : Advanced [email protected]
Format settings, BVOP : 2
Format settings, QPel : No
Format settings, GMC : No warppoints
Format settings, Matrix : Default (H.263)
Muxing mode : Packed bitstream
Codec ID : XVID
Codec ID/Hint : XviD
Duration : 1h 41mn
Bit rate : 1 791 Kbps
Width : 720 pixels
Height : 304 pixels
Display aspect ratio : 2.35:1
Frame rate : 25.000 fps
Color space : YUV
Chroma subsampling : 4:2:0
Bit depth : 8 bits
Scan type : Progressive
Compression mode : Lossy
Bits/(Pixel*Frame) : 0.327
Stream size : 1.27 GiB (93%)
Writing library : XviD 64

Audio
ID : 1
Format : MPEG Audio
Format version : Version 1
Format profile : Layer 3
Mode : Joint stereo
Mode extension : MS Stereo
Codec ID : 55
Codec ID/Hint : MP3
Duration : 1h 41mn
Bit rate mode : Constant
Bit rate : 128 Kbps
Channel(s) : 2 channels
Sampling rate : 44.1 KHz
Compression mode : Lossy
Stream size : 93.2 MiB (7%)
Alignment : Split accross interleaves
Interleave, duration : 40 ms (1.00 video frame)

Plot:
In a future where people stop aging at 25, but are engineered to live only one more year, having the means to buy your way out of the situation is a shot at immortal youth. Here, Will Salas finds himself accused of murder and on the run with a hostage - a connection that becomes an important part of the way against the system.


Thanks to RELiZLABS for the source files
Sharpened Resized and tweaked RGB
Video missing a few seconds here and there
but nothing important
Not the best video or LiNE
so take it or leave it

[/code]
Screens:
http://img849.imageshack.us/img849/49/14455743.png

http://img690.imageshack.us/img690/2359/63357567.png

http://img100.imageshack.us/img100/7048/57874559.png

http://img198.imageshack.us/img198/1416/83879578.png

http://img695.imageshack.us/img695/3672/timebu.jpg


Related torrents

Torrent NameAddedSizeSeedLeechHealth
1 Year+ - in Movies1.37 GB00
1 Year+ - in Movies1.39 GB1895
1 Year+ - in Movies2.76 GB354
1 Year+ - in Movies1.39 GB139
1 Year+ - in Movies1.39 GB2215

Comments (0 Comments)




Please login or create a FREE account to post comments

Latest Searches

| M O N E y Gang | vce 500 | for sale the beatles | trying to get to u babe | u 2 chuuwee x trizz | 600 | do you minds | k wang it | Pokemon x for ds | avery social media slut |