Quick Browse
Movies
TV shows
Music
Games
Applications
Anime
Other
Facebook
Advertising

Friends
Torrent Download
Movie4u
1337x.to
Torrent Downloads




Verified torrent Incpetion *3D* Side By Side L R BD RIP XVID MP3 Striker WBZ


    Seeders : 0      Leechers : 0

Trackers List

Tracker NameLast CheckStatusSeedersLeechers




Torrent File Content (3 files)


Incpetion 3D Side By Side LR BD RIP XVID MP3 Striker WBZ
     Incpetion 3D Side By Side LR BD RIP XVID MP3 Striker WBZ.avi -
2.17 GB

     Sample.avi -
65.31 MB

     A WarezBoyz Release!!!!!!.txt -
0 bytes



Description



http://pic.phyrefile.com/s/sh/shahaz/2011/05/01/wbz3d_001.png


http://pic.phyrefile.com/s/sh/shahaz/2011/05/01/inception.png


http://www.imagefreeks.com/out.php/i85_info.png



[size="4"][color="#FF00FF"]This is a 2D to 3D conversion using Side By Side Left/Right Technic.
[/color][/size]

[size="4"][color="#FF0000"]- PC & Mac
Plays with Stereoscopic Player (Shareware)
Nvidia Stereoscopic Player (free)
ArcSoft TotalMedia
PowerDVD 10 Ultra Mark II


- TV
Compatible with 3D TVs and 3D-Ready TVs that can play SBS (mostly all).
(Click on 3D button on remote and Chose Side By Side Left / Right when inputing this file)[/color][/size]


[size="4"][color="#FF0000"]General[/color][/size]

3D Specs : 2D to 3D with Side By Side Left-Right Images
Format : AVI
File size : 2.17 GiB
Duration : 2h 28mn
Overall bit rate : 2101 Kbps


[size="4"][color="#FF0000"]VIDEO[/color][/size]

ID : 0
Format : MPEG-4 Visual
Format profile : Advanced [email protected]
Format settings, BVOP : 2
Format settings, QPel : No
Format settings, GMC : No warppoints
Format settings, Matrix : Default (H.263)
Codec ID : XVID
Codec ID/Hint : XviD
Duration : 2h 28mn
Bit rate : 1 897 Kbps
Width : 2 560 pixels
Height : 536 pixels
Display aspect ratio : 4.776
Frame rate : 23.976 fps
Color space : YUV
Chroma subsampling : 4:2:0
Bit depth : 8 bits
Scan type : Progressive
Compression mode : Lossy
Bits/(Pixel*Frame) : 0.058
Stream size : 1.96 GiB (90%)
Writing library : XviD 1.2.1 (UTC 2008-12-04)


[size="4"][color="#FF0000"]AUDIO[/color][/size]

ID : 1
Format : MPEG Audio
Format version : Version 1
Format profile : Layer 3
Mode : Joint stereo
Mode extension : MS Stereo
Codec ID : 55
Codec ID/Hint : MP3
Duration : 2h 28mn
Bit rate mode : Constant
Bit rate : 192 Kbps
Channel(s) : 2 channels
Sampling rate : 48.0 KHz
Compression mode : Lossy
Stream size : 203 MiB (9%)
Alignment : Split accross interleaves
Interleave, duration : 42 ms (1.00 video frame)
Interleave, preload duration : 500 ms
Writing library : LAME3.98r
Encoding settings : -m j -V 4 -q 2 -lowpass 18.6 -b 192


http://www.imagefreeks.com/out.php/i86_screens.png


[size="4"][color="#FF0000"]NORMAL PAYER SCREENS:[/color][/size]

http://pic.phyrefile.com/s/sh/shahaz/2011/05/01/1.jpg

http://pic.phyrefile.com/s/sh/shahaz/2011/05/01/2.jpg

http://pic.phyrefile.com/s/sh/shahaz/2011/05/01/3.jpg

http://pic.phyrefile.com/s/sh/shahaz/2011/05/01/4.jpg

http://pic.phyrefile.com/s/sh/shahaz/2011/05/01/5.jpg

http://pic.phyrefile.com/s/sh/shahaz/2011/05/01/6.jpg

http://pic.phyrefile.com/s/sh/shahaz/2011/05/01/7.jpg

http://pic.phyrefile.com/s/sh/shahaz/2011/05/01/8.jpg

http://pic.phyrefile.com/s/sh/shahaz/2011/05/01/9.jpg




[size="4"][color="#FF0000"]Stereoscopic Player Screens:[/color][/size]

http://pic.phyrefile.com/s/sh/shahaz/2011/05/01/1.JPG

http://pic.phyrefile.com/s/sh/shahaz/2011/05/01/2.JPG

http://pic.phyrefile.com/s/sh/shahaz/2011/05/01/3.JPG

Related torrents

Torrent NameAddedSizeSeedLeechHealth
1 Year+ - in Movies2.58 GB02
7 months ago - in Other5.15 GB00
1 Year+ - in Movies1.75 GB133
Verified torrent
1 Year+ - in Movies1.39 GB10
Verified torrent
1 Year+ - in Movies1.43 GB1220

Comments (0 Comments)




Please login or create a FREE account to post comments

Latest Searches

| Tha Carter III Lil Wayne | evilangel true scene | The Fountain L albero Della Vita | m leighton tough enough | ultimate fighter a tournament | Mars S01E02 hevc | the body snatchers nl | Cisco DCUCT 642 035 | learn to lick her pussy | strengths parenting |