Quick Browse
Movies
TV shows
Music
Games
Applications
Anime
Other
Facebook
Advertising

Friends
Torrent Download
Movie4u
1337x.to
Torrent Downloads




Verified torrent Incredible Hulk.Bluray.720p.Hindi~3385VKSH


    Seeders : 2      Leechers : 6
Hash :A6945C86B312A59BB8FCA769329725BEB7EAE844
Added :1 Year+ by VKS3385Verified torrent uploader in Movies
Size :2.11 GB
Stream :WATCH ONLINE @ Movie4u


Incredible Hulk.Bluray.720p.Hindi~3385VKSH
Free and Fast Download with Usenet 300GB+ free







Trackers List

Tracker NameLast CheckStatusSeedersLeechers




Torrent File Content (2 files)


Incredible Hulk.Bluray.720p.Hindi
     Incredible Hulk.Bluray.720p.Hindi.mkv -
2.1 GB

     Sample.mkv -
5.52 MB



Description



http://img340.imageshack.us/img340/1050/hddesirockers.png

http://img62.imageshack.us/img62/5382/roadsignphp.png


http://img836.imageshack.us/img836/6596/theincrediblehulk2008.jpg


http://img836.imageshack.us/img836/3343/25ic0hd1.png


http://img687.imageshack.us/img687/7209/incrivelhulk2f5a59.jpg


A cure is in reach for the world's most primal force of fury: THE INCREDIBLE HULK. We find scientist Bruce Banner, living in shadows, scouring the planet for an antidote. But the warmongers who dream of abusing his powers won't leave him alone, nor will his need to be with the only woman he has ever loved, Betty Ross. Upon returning to civilization, our brilliant doctor is ruthlessly pursued by The Abomination -- a nightmarish beast of pure adrenaline and aggression whose powers match The Hulk's own. A fight of comic-book proportions ensues as Banner must call upon the hero within to rescue New York City from total destruction. One scientist must make an agonizing final choice -- accept a peaceful life as Bruce Banner or the creature he could permanently become: THE INCREDIBLE HULK.

http://img714.imageshack.us/img714/4783/9k1gty1.png

Edward Norton ... Bruce Banner

Liv Tyler ... Betty Ross

Tim Roth ... Emil Blonsky

William Hurt ... General 'Thunderbolt' Ross

Tim Blake Nelson ... Samuel Sterns

Ty Burrell ... Leonard

Christina Cabot ... Major Kathleen Sparr

Peter Mensah ... General Joe Greller

Lou Ferrigno ... The Incredible Hulk / Security Guard (voice)

Paul Soles ... Stanley

D├ębora Nascimento ... Martina

Greg Bryk ... Commando

Chris Owens ... Commando

Al Vrkljan ... Commando (as Alan Vrkljan)

Adrian Hein ... Commando


http://i50.tinypic.com/zvbzx2.jpg


General
Complete name : Incredible Hulk.Bluray.720p.Hindi~3385VKSH
Format : Matroska
File size : 2.10 GiB
Duration : 1h 47mn
Overall bit rate : 2 796 Kbps
Movie name : Incredible Hulk.Bluray.720p.Hindi.Djvikas
Writing application : AVI-Mux GUI 1.17.8, Aug 30 2008 12:36:58
Writing library : matroska muxer by Alexander Noe, build date Aug 30 2008


http://img412.imageshack.us/img412/7057/imdb3.png

[size=3]http://www.imdb.com/title/tt0800080/[/size]

http://img37.imageshack.us/img37/7218/vlcfile.png

Video
ID : 1
Format : AVC
Format/Info : Advanced Video Codec
Format profile : [email protected]
Format settings, CABAC : Yes
Format settings, ReFrames : 8 frames
Muxing mode : Container [email protected]
Codec ID : V_MPEG4/ISO/AVC
Duration : 1h 47mn
Bit rate : 2 433 Kbps
Width : 1 280 pixels
Height : 544 pixels
Display aspect ratio : 2.35:1
Frame rate : 25.000 fps
Original frame rate : 23.976 fps
Color space : YUV
Chroma subsampling : 4:2:0
Bit depth : 8 bits
Scan type : Progressive
Bits/(Pixel*Frame) : 0.140
Stream size : 1.87 GiB (89%)
Writing library : x264 core 80 r1376 3feaec2


http://img248.imageshack.us/img248/6613/musicfile1.png

Audio
ID : 2
Format : AC-3
Format/Info : Audio Coding 3
Mode extension : CM (complete main)
Codec ID : A_AC3
Duration : 1h 47mn
Bit rate mode : Constant
Bit rate : 256 Kbps
Channel(s) : 2 channels
Channel positions : Front: L R
Sampling rate : 44.1 KHz
Bit depth : 16 bits
Stream size : 197 MiB (9%)
Title : Hindi


http://i50.tinypic.com/2qtwdv8.jpg


http://img571.imageshack.us/img571/1007/incrediblehulkbluray720.jpg


http://img651.imageshack.us/img651/1007/incrediblehulkbluray720.jpg


http://img843.imageshack.us/img843/1007/incrediblehulkbluray720.jpg


http://img34.imageshack.us/img34/1007/incrediblehulkbluray720.jpg


http://img809.imageshack.us/img809/1007/incrediblehulkbluray720.jpg


[SIZE=5]Sample Included in the Torrent[/SIZE]

http://i49.tinypic.com/zoap2a.jpg


http://img690.imageshack.us/img690/2538/2s9d1cg.gif


http://i49.tinypic.com/28v8wmr.jpg


http://img205.imageshack.us/img205/91/15880378.png

http://img695.imageshack.us/img695/7097/6sdez7.gif

Related torrents

Torrent NameAddedSizeSeedLeechHealth
Verified torrent
1 Year+ - in Movies1.95 GB614
Verified torrent
1 Year+ - in Movies2.11 GB01
5 months ago - in Movies790.59 MB00
5 months ago - in Movies790.63 MB00
1 Year+ - in Movies1.35 GB45

Comments (0 Comments)




Please login or create a FREE account to post comments

Latest Searches

| Last man standing season 6 episode 8 | teenbff natalie monroe emma stoned 04 23 2014 | living with anna 4 | grave encounters jyk | z ro spice 1 | legends lies the real west | timberlake eminem | ebony girlfriend | no limit usher ft young thug | Suicide Squad 2016 BRRip Dual Audio |