Quick Browse
Movies
TV shows
Music
Games
Applications
Anime
Other

Donate and Support

Friends
Torrents.me
Torrent Download
Free Movies
1337x
RARBG
Torrent Downloads

Verified torrent Independence Day 1996 BDRip Hindi~3385VKSH


    Seeders : 0      Leechers : 0
Hash :8FFBDFFF0E245F8BC634DAEC7198156FB2CADAF3
Added :1 Year+ by VKS3385Verified torrent uploader in Movies
Size :2.08 GB
Stream :Watch Full Movies Online @ Movie4u
Share :


Independence Day 1996 BDRip Hindi~3385VKSH
Anonymous and Direct Download 300GB+ free







Warning! Do not Download Torrents Without a VPN!
Your IP Address is .   And Location is
Your Internet Provider and Government can track your torrent Activity!  Hide your IP ADDRESS with a VPN!
We Strongly Recommend Using SpyOFF Torrent VPN to Anonymize your Torrenting. It's FREE For 15 Days!

Note :

Please Update (Trackers Info) Before Downloading Torrents to See Updated Seeders And Leechers for Batter Download Speed.

Trackers List

Tracker NameLast CheckStatusSeedersLeechers




Torrent File Content (2 files)


Independence Day 1996 BDRip
     Independence Day 1996 BDRip.mkv -
2.08 GB

     Independence Day.jpg -
1.2 MB



Description



http://img340.imageshack.us/img340/1050/hddesirockers.png

http://img62.imageshack.us/img62/5382/roadsignphp.png


http://i50.tinypic.com/zvbzx2.jpg

http://img844.imageshack.us/img844/219/51ufybcmjl.jpg

http://img716.imageshack.us/img716/7949/independencedayfrontcov.jpg


General
Complete name :Independence Day 1996 BDRip Hindi~3385VKSH
Format : Matroska
File size : 2.08 GiB
Duration : 2h 18mn
Overall bit rate : 2 146 Kbps
Encoded date : UTC 2010-08-06 19:40:29
Writing application : mkvmerge v4.1.1 ('Bouncin' Back') built on Jul 3 2010 22:54:08
Writing library : libebml v1.0.0 + libmatroska v1.0.0


http://img37.imageshack.us/img37/7218/vlcfile.png

Video
ID : 1
Format : AVC
Format/Info : Advanced Video Codec
Format profile : [email protected]
Format settings, CABAC : Yes
Format settings, ReFrames : 4 frames
Format settings, GOP : M=1, N=3
Muxing mode : Container [email protected]
Codec ID : V_MPEG4/ISO/AVC
Duration : 2h 18mn
Bit rate : 1 751 Kbps
Width : 1 280 pixels
Height : 544 pixels
Display aspect ratio : 2.35:1
Frame rate : 25.000 fps
Original frame rate : 23.976 fps
Color space : YUV
Chroma subsampling : 4:2:0
Bit depth : 8 bits
Scan type : Progressive
Bits/(Pixel*Frame) : 0.101
Stream size : 1.73 GiB (83%)
Writing library : x264 core 68 r1183M f21daff


http://img248.imageshack.us/img248/6613/musicfile1.png

Audio
ID : 2
Format : MPEG Audio
Format version : Version 1
Format profile : Layer 3
Mode : Joint stereo
Codec ID : A_MPEG/L3
Codec ID/Hint : MP3
Duration : 2h 18mn
Bit rate mode : Constant
Bit rate : 320 Kbps
Channel(s) : 2 channels
Sampling rate : 48.0 KHz
Video delay : 16ms
Stream size : 318 MiB (15%)
Language : Hindi


http://i43.tinypic.com/2rms307.jpg

http://img829.imageshack.us/img829/1206/independenceday19492116.jpg

http://img214.imageshack.us/img214/7507/snapshot20090909104249.jpg

http://img823.imageshack.us/img823/7682/snapshot20090909104403.jpg

http://img830.imageshack.us/img830/8297/snapshot20090909104455.jpg

http://img823.imageshack.us/img823/9164/independenceday00674316.jpg

http://img214.imageshack.us/img214/1961/independenceday04322516y.jpg

http://img291.imageshack.us/img291/2839/independenceday11491816.jpg


http://img205.imageshack.us/img205/91/15880378.png


http://i49.tinypic.com/zoap2a.jpg


http://i47.tinypic.com/2e31pp3.jpg

[size=4]Sample[/size]
http://img695.imageshack.us/img695/7097/6sdez7.gif

[size=3]http://www.mediafire.com/?912phvimx9wz98a[/size]

Related torrents

Torrent NameAddedSizeSeedLeechHealth
1 Year+ - in Movies861.89 MB01
1 Year+ - in Movies4.33 GB02
1 Year+ - in Movies2.55 GB00
1 Year+ - in Movies2.55 GB20
Verified torrent
1 Year+ - in Movies2.44 GB11

Comments (0 Comments)




Please login or create a FREE account to post comments

Latest Searches

| LOVELY MAZE | the 1975 somebody else the 1975 | disc pro 200 | Im Who I Am 2017 | black book sex positions | big tits fiend | future you da baddest ft nicki | disc pro 199 | She Loves 2017 Split Scenes | the accountant hevc 1080p |