Quick Browse
Movies
TV shows
Music
Games
Applications
Anime
Other
Facebook
Friends
Torrent Download
Movie4u
1337x.to
Torrent Downloads

Indiaan, De (2009)(MPEG-4)(IPONE)(Dutch) 2Lions-Team


    Seeders : 2      Leechers : 5

Trackers List

Tracker NameLast CheckStatusSeedersLeechers




Torrent File Content (5 files)


Indiaan, De (2009)(MPEG-4)(IPONE)(Dutch) 2Lions-Team
    INFO 2Lions-Team
          logo 2Lions.jpg -
314.99 KB

          de indiaan poster.jpg -
24.17 KB

          Indiaan, De (2009)(MPEG-4)(IPONE)(Dutch) 2Lions-Team.txt -
3.31 KB

          Torrents aan geboden door _2lions.ons-forum.nl.txt -
583 bytes

    MOVIE
          de Indiaan.mp4 -
879.58 MB



Description



Indiaan, De  (2009)(MPEG-4)(IPONE)(Dutch) 2Lions-Team  

http://img689.imageshack.us/img689/4414/deindiaanposter.jpg


Nederland
Familie
75 minuten

geregisseerd door Ineke Houtman
met Bastiaan Ragas, Angelique de Bruijne en Hans Dagelet

De achtjarige Koos wil graag op zijn imposante, blonde vader lijken. Eenvoudig is dat echter niet, aangezien hij is geadopteerd uit Peru en dus klein en donker is. Dan ziet hij voor de supermarkt een Peruaanse jongen die vreemde muziek staat te maken. Zo komt hij erachter dat ook hij van oorsprong een indiaan is. Vanaf dat moment doet hij er alles aan om, ondanks zijn Hollandse ouders, een waarachtig indiaan te zijn.Vanaf 10 november in de videotheek



English

the eight years old boy called Koos want to be a lookalike of his blond dad,thats not simple,because he was adopted from Peru.then he meets a boy from peru making strange music. from that moment he does his ultimate best to be a real indian.

[code]Source : Retail Pal
Audio : Dutch
Formaat: MPEG-4

Format : MPEG-4
Format profile : Base Media
Codec ID : isom
File size : 880 MiB
Duration : 1h 15mn
Overall bit rate : 1 633 Kbps


Video
ID : 1
Format : MPEG-4 Visual
Format profile : [email protected]
Format settings, BVOP : No
Format settings, QPel : No
Format settings, GMC : No warppoints
Format settings, Matrix : Default (H.263)
Codec ID : 20
Duration : 1h 15mn
Bit rate mode : Variable
Bit rate : 1 500 Kbps
Width : 720 pixels
Height : 406 pixels
Display aspect ratio : 16/9
Frame rate mode : Constant
Frame rate : 25.000 fps
Resolution : 24 bits
Colorimetry : 4:2:0
Scan type : Progressive
Bits/(Pixel*Frame) : 0.205
Stream size : 808 MiB (92%)
Writing library : Lavc51.40.4


Audio
ID : 2
Format : AAC
Format/Info : Advanced Audio Codec
Format version : Version 4
Format profile : LC
Format settings, SBR : No
Codec ID : 40
Duration : 1h 15mn
Bit rate mode : Variable
Bit rate : 128 Kbps
Channel(s) : 2 channels
Channel positions : L R
Sampling rate : 48.0 KHz
Resolution : 16 bits
Stream size : 68.9 MiB (8%)[/code]




Genre : Familiefilm

Weblink : http://moviemeter.nl/film/54790
Weblink : http://www.imdb.com/title/tt1267493


*****************************************


Brought to you by
Pioen
http://i226.photobucket.com/albums/dd118/FloraKing/Avator/bloemenmeisje.gif

2Lions Team



http://i845.photobucket.com/albums/ab16/hortencia9/_96637_four_weddings_and_a_funeral_.jpg



2Lions-Team for all your Dutch MOVIES and more

*****************************************

DON T HIT AND RUN Niet gelijk afhaken als de film binnen is blijf seeden.

Related torrents

Torrent NameAddedSizeSeedLeechHealth
1 Year+ - in Movies964.69 MB310
1 Year+ - in Movies987.4 MB6339
1 Year+ - in Movies933.71 MB00
1 Year+ - in Movies3.22 GB1062
1 Year+ - in Movies4.28 GB00

Comments (0 Comments)




Please login or create a FREE account to post comments

Latest Searches

| Miss Peregrines Home For Peculiar Children 2016 3D 1080p BluRay | Wysoko | manhunt assassin | phil collins against odds | tomb yify | immortaly | 12 Rounds Reloaded 2013 720p BluRay H264 AAC RARBG | Wet sinful | CLEAN BANDIT Rockabye | ross ft Boosie |