Quick Browse
Movies
TV shows
Music
Games
Applications
Anime
Other
Facebook
Advertising

Friends
Torrent Download
Movie4u
1337x.to
Torrent Downloads




Verified torrent Inside.the.Booby.XXX.DVDRIP [TDADevil]


    Seeders : 0      Leechers : 0
Hash :D0530F1896DBCED7D0ED02025F3FC7FE09C1CD49
Added :1 Year+ by Vamp111Verified torrent uploader in Other - Other
Size :700.87 MB
Stream :WATCH ONLINE @ Movie4u


Inside.the.Booby.XXX.DVDRIP [TDADevil]
Free and Fast Download with Usenet 300GB+ free







Trackers List

Tracker NameLast CheckStatusSeedersLeechers




Torrent File Content (2 files)


Inside.the.Booby.XXX.DVDRIP
     Inside.the.Booby.XXX.DVDRIP.avi -
700.87 MB

     Thedesiadda.com.txt -
64 bytes



Description




http://www.desiupload.com/out.php/i505610_Inside.the.Booby.XXX.DVDRIP2010092513335473.jpg

http://www.desiupload.com/out.php/i505611_Inside.the.Booby.XXX.DVDRIP2010092513341184.jpg

http://www.desiupload.com/out.php/i505612_Inside.the.Booby.XXX.DVDRIP2010092513342795.jpg

http://www.desiupload.com/out.php/i505613_Inside.the.Booby.XXX.DVDRIP2010092513343882.jpg

http://www.desiupload.com/out.php/i505614_Inside.the.Booby.XXX.DVDRIP2010092513351365.jpg



Video
ID : 0
Format : MPEG-4 Visual
Format profile : Advanced [email protected]
Format settings, BVOP : Yes
Format settings, QPel : No
Format settings, GMC : No warppoints
Format settings, Matrix : Default (MPEG)
Codec ID : XVID
Codec ID/Hint : XviD
Duration : 1h 33mn
Bit rate : 918 Kbps
Width : 576 pixels
Height : 320 pixels
Display aspect ratio : 16:9
Frame rate : 23.976 fps
Resolution : 8 bits
Colorimetry : 4:2:0
Scan type : Progressive
Bits/(Pixel*Frame) : 0.208
Stream size : 617 MiB (88%)
Writing library : XviD 1.2.1 (UTC 2008-12-04)

Audio
ID : 1
Format : MPEG Audio
Format version : Version 1
Format profile : Layer 3
Mode : Joint stereo
Format_Settings_ModeExtension : MS Stereo
Codec ID : 55
Codec ID/Hint : MP3
Duration : 1h 33mn
Bit rate mode : Variable
Bit rate : 113 Kbps
Minimum bit rate : 112 Kbps
Channel(s) : 2 channels
Sampling rate : 48.0 KHz
Stream size : 75.7 MiB (11%)
Alignment : Aligned on interleaves
Interleave, duration : 24 ms (0.58 video frame)
Interleave, preload duration : 165 ms

Related torrents

Torrent NameAddedSizeSeedLeechHealth
1 Year+ - in Other4.38 GB01
1 Year+ - in Other700.87 MB00
1 Year+ - in Other156.71 MB00
1 Year+ - in Other250.98 MB817
1 Year+ - in Other523.45 MB00

Comments (0 Comments)




Please login or create a FREE account to post comments

Latest Searches

| DCs Legends of Tomorrow s01e06 lol | of Joe Cocker | taucher of the universe silver shadow remix mp3 | vim and pdf | sara bareilles between the lines | shomin sample s01e04 | d c legends s02e09 | microsoft office 2011 final 14 0 0 for mac | The heirs 1080p | ab soul do what thou wilt |