Quick Browse
Movies
TV shows
Music
Games
Applications
Anime
Other
Facebook
Advertising

Friends
Torrent Download
Movie4u
1337x.to
Torrent Downloads




Verified torrent Insidious 2011 R5 DVDRip Cleaned AC3 XVID HQ Hive-CM8


    Seeders : 197      Leechers : 1586
Hash :9745B3EFB288543AD8A228AACE8E171C243AFC07
Added :1 Year+ by memory100Verified torrent uploader in Movies
Size :1.53 GB
Stream :WATCH ONLINE @ Movie4u


Insidious 2011 R5 DVDRip Cleaned AC3 XVID HQ Hive-CM8
Free and Fast Download with Usenet 300GB+ free







Trackers List

Tracker NameLast CheckStatusSeedersLeechers




Torrent File Content (10 files)


Insidious.2011.R5.DVDRip.Cleaned.AC3.XVID.HQ.Hive-CM8
     Budget seedboxs.txt -
44 bytes

     Insidious.2011.R5.DVDRip.Cleaned.AC3.XVID.HQ.Hive-CM8.avi -
1.51 GB

     Insidious.2011.R5.DVDRip.Cleaned.AC3.XVID.HQ.Hive-CM8.nfo -
5.41 KB

     NW RG.nfo -
12.96 KB

     Torrent downloaded from Demonoid.me.txt -
46 bytes

     northernwarriors.net.txt -
135 bytes

     sample1.avi -
6.64 MB

     sample2.avi -
6.65 MB

     sceneunderground.org.txt -
77 bytes

     visiontracker.net.txt -
91 bytes



Description



http://img535.imageshack.us/img535/1221/insidiousfilmposter.jpg


[code]
[color=blue][size=5]Insidious.2011.R5.DVDRip.Cleaned.AC3.XVID.HQ.Hive-CM8[/size][/color]


Thx Hive

CM8 Doing It Right The First Time :D

Sources:
Video: Russian DVD-5
Astral.2010.D.DVD.ELEKTRI4KA
Audio: Imagines "line" thx

Encode: well took me around 20h to make something half decent. The Russian DVD has very low quality. It doesnt want to get sharpened or brightened up without getting bad or worse. so i made around 20 different encodes to finally get one rather harmless,that looks like the dvd in fullscreen without getting contour errors or visible stripes in movement.
looks better this way
Now to the Audio.
There are only 2 audios available, the older cam audio which is not nice and the new "line" from imagine.
But i am thankful at least its a complete audiotrack to begin with.
I made a lot of improvements besides cleaning and running it trough a speechfilter and a phonopreamp
i played with mids, treble and bass along with noise and some loudness adjustment.
you can hear now better what they are saying.
its a bit of an improvment but dont await too much i am not a magician.
if you rated imagines audio a 3 before its now a 4.5 maybe, but decent to watch and hear.
i didnt do 5.1, that would kill the audio.
with the sources available atm, this maybe the best solution till something better comes up.
well its your decision, watch the sample and decide if you want it or not before you download it.
at least i dont say in the nfo sweet line, which it isnt.

btw. imagines video is 7 secondes shorter, thats why imagines audio is not sync to the r5 video, which results in not sync like in rx video.
this 7 seconds missing are at point 17m25s and 58m35s.
since there is no audio for that spots you can either cut them out or make a audio looping, but thats just for the ones who wants to know.
My audio like always will fit to any r5 direct video encode.

Video: 720x304 @bitrate 1900
Audio: English AC3 2.0 Stereo
Sample: yes included



[url]http://www.imdb.com/title/tt1591095/[/url]

General
Complete name : Insidious.2011.R5.DVDRip.Cleaned.AC3.XVID.HQ.Hive-CM8.avi
Format : AVI
Format/Info : Audio Video Interleave
File size : 1.51 GiB
Duration : 1h 38mn
Overall bit rate : 2 209 Kbps
Writing application : Nandub v1.0rc2
Writing library : Nandub build 1853/release

Video
ID : 0
Format : MPEG-4 Visual
Format profile : Advanced [email protected]
Format settings, BVOP : Yes
Format settings, QPel : Yes
Format settings, GMC : No warppoints
Format settings, Matrix : Default (H.263)
Muxing mode : Packed bitstream
Codec ID : XVID
Codec ID/Hint : XviD
Duration : 1h 38mn
Bit rate : 1 943 Kbps
Width : 720 pixels
Height : 304 pixels
Display aspect ratio : 2.35:1
Frame rate : 25.000 fps
Color space : YUV
Chroma subsampling : 4:2:0
Bit depth : 8 bits
Scan type : Progressive
Bits/(Pixel*Frame) : 0.355
Stream size : 1.33 GiB (88%)
Writing library : XviD 1.2.1 (UTC 2008-12-04)

Audio
ID : 1
Format : AC-3
Format/Info : Audio Coding 3
Mode extension : CM (complete main)
Codec ID : 2000
Duration : 1h 38mn
Bit rate mode : Constant
Bit rate : 256 Kbps
Channel(s) : 2 channels
Channel positions : Front: L R
Sampling rate : 48.0 KHz
Bit depth : 16 bits
Stream size : 180 MiB (12%)
Alignment : Split accross interleaves
Interleave, duration : 40 ms (1.00 video frame)
Interleave, preload duration : 500 ms

Cast:
Patrick Wilson ... Josh Lambert
Rose Byrne ... Renai Lambert
Ty Simpkins ... Dalton Lambert
Andrew Astor ... Foster Lambert
Lin Shaye ... Elise Rainier
Leigh Whannell ... Specs
Angus Sampson ... Tucker
Barbara Hershey ... Lorraine Lambert

Plot:
A family looks to prevent evil spirits from trapping their comatose child in a realm called The Further.
[/code]
Screens:
http://img34.imageshack.us/img34/7611/61763258d.png

http://img822.imageshack.us/img822/9467/iniinn.png

http://img709.imageshack.us/img709/5657/ininn.png

http://img268.imageshack.us/img268/5848/ininiinininn.png

http://img685.imageshack.us/img685/521/ininiinn.png

http://img69.imageshack.us/img69/7980/ininin.png

http://img843.imageshack.us/img843/456/ininiininn.png

Related torrents

Torrent NameAddedSizeSeedLeechHealth
1 Bad
1 Year+ - in Movies1.53 GB023
1 Year+ - in Movies1.53 GB00
1 Comments
4 Good
Verified torrent
1 Year+ - in Movies743.35 MB00
1 Year+ - in Movies1.6 GB6112
1 Year+ - in Movies1.47 GB00

Comments (2 Comments)




deejay101
» Downloaded this torrent Downloaded this torrent » Voted Bad Voted Bad for this torrent for this torrent

Added 1 Year+
very good video but audio taken from cinema me thinks
Jobe
» Downloaded this torrent Downloaded this torrent » Voted Good Voted Good for this torrent for this torrent

Added 1 Year+
good movie.sound is like 3 out of 5. quick dl
Please login or create a FREE account to post comments

Latest Searches

| octavarium dream theater | wanted 1 6 cbr | Krystal S | Brandon Skeie | CzechAmateurs CZECH AMATEURS Part 78 XXX | Tushy 16 12 02 Anna De Ville XXX | java programming from problem analysis | wynonna earp x264 KILLERS ettv | Windows 7 Loader v1 7 5 torrent | Globe Trekker S16E04 Great Australian Hikes 720p HDTV x264 ASCENDANCE |