Quick Browse
Movies
TV shows
Music
Games
Applications
Anime
Other
Facebook
Friends
Torrent Download
Free Movies
1337x.to
Torrent Downloads

Verified torrent Insidious 2011 R5 LiNE XViD - IMAGiNE


    Seeders : 437      Leechers : 58
Hash :8469316453D86853E0F1211E48E04341F65520F8
Added :1 Year+ by memory100Verified torrent uploader in Movies
Size :1.39 GB
Stream :Watch Full Movies Online @ Movie4u
Share :


Insidious 2011 R5 LiNE XViD - IMAGiNE
Anonymous and Direct Download 300GB+ free







Warning! Do not Download Torrents Without a VPN!
Your IP Address is .   Location is
Your Internet Provider and Government can track your torrent Activity!  Hide your IP ADDRESS with a VPN!
We Strongly Recommend Using SpyOFF VPN to Anonymize your Torrenting. It's FREE!

Note :

Please Update (Trackers Info) Before Downloading Torrents to See Updated Seeders And Leechers for Batter Download Speed.

Trackers List

Tracker NameLast CheckStatusSeedersLeechers




Torrent File Content (9 files)


Insidious 2011 R5 LiNE XViD - IMAGiNE
     Budget seedboxs.txt -
44 bytes

     Insidious 2011 R5 LiNE XViD - IMAGiNE.NFO -
5.21 KB

     Insidious 2011 R5 LiNE XViD - IMAGiNE.avi -
1.37 GB

     Insidious 2011 R5 LiNE XViD - SAMPLE.avi -
17.07 MB

     NW RG.nfo -
12.96 KB

     Torrent downloaded from Demonoid.me.txt -
46 bytes

     northernwarriors.net.txt -
135 bytes

     sceneunderground.org.txt -
77 bytes

     visiontracker.net.txt -
91 bytes



Description



http://leetleech.org/images/74809900376644235383.png

[code]
Insidious 2011 R5 LiNE XViD - IMAGiNE

Ripper ...........: IMAGNE IMDB 7.4/10 Rating.......:7.8/10
Video Codec.......: XVID Release Date......:23/04/11
Audio Codec.......:MP3 Theatre Date......:01/04/11
Audio Bitrate.....:128 Runtime.......:1h 38mn
Subtitles.........:NIL Language..........:ENGLISH
Resolution...... 720 x 304 IMDb URL.......... http://www.imdb.com/title/tt1591095/

DETAILS:

Video
ID : 0
Format : MPEG-4 Visual
Format profile : Advanced [email protected]
Format settings, BVOP : 2
Format settings, QPel : No
Format settings, GMC : No warppoints
Format settings, Matrix : Default (MPEG)
Muxing mode : Packed bitstream
Codec ID : XVID
Codec ID/Hint : XviD
Duration : 1h 38mn
Bit rate : 1 861 Kbps
Width : 720 pixels
Height : 304 pixels
Display aspect ratio : 2.35:1
Frame rate : 25.000 fps
Color space : YUV
Chroma subsampling : 4:2:0
Bit depth : 8 bits
Scan type : Progressive
Compression mode : Lossy
Bits/(Pixel*Frame) : 0.340
Stream size : 1.27 GiB (93%)
Writing library : XviD 61

Audio
ID : 1
Format : MPEG Audio
Format version : Version 1
Format profile : Layer 3
Mode : Joint stereo
Mode extension : MS Stereo
Codec ID : 55
Codec ID/Hint : MP3
Duration : 1h 38mn
Bit rate mode : Constant
Bit rate : 128 Kbps
Channel(s) : 2 channels
Sampling rate : 44.1 KHz
Compression mode : Lossy
Stream size : 89.8 MiB (6%)
Alignment : Split accross interleaves
Interleave, duration : 40 ms (1.00 video frame)
Interleave, preload duration : 500 ms
Writing library : LAME3.98r
Encoding settings : -m j -V 4 -q 2 -lowpass 17 -b 128

SOURCES:
VIDEO: .......... Astral.2010.D.DVD.ELEKTRI4KA Thanx
AUDIO: .......... Thanx Matey

NOTES:
IMAGiNE bringing you another release..........

Insidious R5.........

Alright folks here we have a very nice R5,

source was good but had some color issues.....

So first we made a script to crop, resize and sharpen then it was a matter of balancing out the color as the source video had a green tint to it...

Audio was very nice LiNE which we filtered, synced and muxed to our encode

Enjoy Folks!
[/CODE]
screens:
http://img818.imageshack.us/img818/9083/92195170.jpg

http://img824.imageshack.us/img824/7343/49775561.jpg

http://img684.imageshack.us/img684/6095/27037330.jpg

http://img705.imageshack.us/img705/3871/68657133.jpg

http://img585.imageshack.us/img585/1292/59199787.jpg

Related torrents

Torrent NameAddedSizeSeedLeechHealth
1 Year+ - in Movies1.39 GB00
1 Year+ - in Movies1.39 GB01
1 Year+ - in Movies1.39 GB162
1 Year+ - in Movies1.39 GB01
1 Bad
1 Year+ - in Movies1.97 GB7592

Comments (1 comment)




CorkyBoy
» Voted Good Voted Good for this torrent for this torrent

Added 1 Year+
good copy
Please login or create a FREE account to post comments

Latest Searches

| Police Story 4 Strike | planet earth 720p S01 | Tina Guo 2017 | Kanye west kid cudi | huge round black ass | Robert Jordan The Gathering Storm Wheel of Time 12 | wow keygen rar | second life movie | Self Construction | Overworked Titties 2 Brazzers |