Quick Browse
Movies
TV shows
Music
Games
Applications
Anime
Other
Facebook
Advertising

Friends
Torrent Download
Movie4u
1337x.to
Torrent Downloads




Verified torrent Intruders 2011 TS READNFO XviD AC3-26K


    Seeders : 0      Leechers : 0
Hash :62F22BDE4B63B465AA0D4AFCDCD50E926D43991B
Added :1 Year+ by memory100Verified torrent uploader in Movies
Size :1.79 GB
Stream :WATCH ONLINE @ Movie4u


Intruders 2011 TS READNFO XviD AC3-26K
Free and Fast Download with Usenet 300GB+ free







Trackers List

Tracker NameLast CheckStatusSeedersLeechers
http://tracker.nwps.ws:6969/announce1 Year+success00
http://bigfoot1942.sektori.org:6969/announce1 Year+success00
http://announce.torrentsmd.com:6969/announce1 Year+success00
udp://tracker.coppersurfer.tk:801 Year+success00
http://tracker.windsormetalbattery.com/announce1 Year+success00
http://tracker.winglai.com/announce1 Year+success00
http://torrent.gresille.org/announce1 Year+success00
http://tracker.trackerfix.com/announce1 Year+success00
udp://9.rarbg.com:2710/announce1 Year+success00
udp://open.demonii.com:1337/announce1 Year+success00




Torrent File Content (8 files)


Intruders 2011 TS READNFO XviD AC3-26K
     att-networks.com.txt -
39 bytes

     HDSceneRG.txt -
115 bytes

     Intruders 2011 TS READNFO XviD AC3-26K.avi -
1.73 GB

     Intruders 2011 TS READNFO XviD AC3-26K.nfo -
3.53 KB

     sample.avi -
53.88 MB

     sceneunderground.org.txt -
77 bytes

     Torrent downloaded from Demonoid.me.txt -
46 bytes

     Torrent downloaded from rarbg.com.txt.txt -
0 bytes



Description



http://img821.imageshack.us/img821/8361/intruders.jpg

[code]
Intruders 2011 TS READNFO XviD AC3-26K

Imdb:
http://www.imdb.com/title/tt1634121/

Plot:
Two children living in different countries are visited nightly by a faceless being who wants to take possession of them.

Sources:
THNXS TO SOURCES!!

Notes:
REANDFO AUDIO ON THIS IS NOT GREAT.... ALSO AS SOME FORIEGN PARTS IN THE MOVIE WHICH THERE ARE NO SUBS FOR.... ON THE VIDEO IT NEEDED SOME CROP AND WAS VERY VERY DARK SO BUMPED UP THE BRIGHTNESS... SO ENJOY..!! !!THANK YOU TO SPECIAL FRIEND WHO HELPED ME FIX THE AUDIO YOU KNOW WHO YOU ARE THANK YOU BRO'S!!
DVDR SOON....

Greetz:
Xtreme Encode|FYA|ILLUMANTI|CM8|RX|VISION|HDSCENE|NIGHTMAREZ|xTriLL|DTRG|CRYS|REMIXHD|BIDA|RX|REFILL|INSPiRAL|SIC|ZOMBIESZ|HOPE|Anonymous|GooN
To all the people who have helped me :P you know who you are

Anything to offer email us @: [email protected]

Video
ID : 0
Format : MPEG-4 Visual
Format profile : Advanced [email protected]
Format settings, BVOP : 2
Format settings, QPel : No
Format settings, GMC : No warppoints
Format settings, Matrix : Default (H.263)
Codec ID : XVID
Codec ID/Hint : XviD
Duration : 1h 34mn
Bit rate : 2 300 Kbps
Width : 720 pixels
Height : 320 pixels
Display aspect ratio : 2.25:1
Frame rate : 25.000 fps
Color space : YUV
Chroma subsampling : 4:2:0
Bit depth : 8 bits
Scan type : Progressive
Compression mode : Lossy
Bits/(Pixel*Frame) : 0.399
Stream size : 1.52 GiB (88%)
Writing library : XviD 64

Audio
ID : 1
Format : AC-3
Format/Info : Audio Coding 3
Mode extension : CM (complete main)
Codec ID : 2000
Duration : 1h 34mn
Bit rate mode : Constant
Bit rate : 320 Kbps
Channel(s) : 2 channels
Channel positions : Front: L R
Sampling rate : 48.0 KHz
Bit depth : 16 bits
Compression mode : Lossy
Delay relative to video : 350ms
Stream size : 216 MiB (12%)
Alignment : Split accross interleaves
Interleave, duration : 6549 ms (163.72 video frames)

[/code]
Screens:
http://i.imgur.com/WcQ3k.png

http://i.imgur.com/sGrtg.png

http://img404.imageshack.us/img404/1205/vlcsnap2012022419h24m41.png

http://img851.imageshack.us/img851/9969/vlcsnap2012022419h24m44.png

http://img190.imageshack.us/img190/8016/vlcsnap2012022419h24m56.png

http://img20.imageshack.us/img20/8703/vlcsnap2012022419h25m52.png


Alternative screens:
http://imgdepot.org/show/20120224/2/266718_vlcsnap_2012_02_24_19h24m01s236.png
http://www.imageporter.com/uo4jpvuigdsy/vlcsnap-2012-02-24-19h24m22s212.png
http://dippic.com/hznxiup3qqcu
http://www.hotimg.com/image/gvRxWg7

http://img851.imageshack.us/img851/5503/26ks.jpg

Thank you smallz for banner!

Related torrents

Torrent NameAddedSizeSeedLeechHealth
1 Year+ - in Movies1.73 GB00
1 Year+ - in Movies1.79 GB00
Verified torrent
1 Year+ - in Movies1.73 GB10
Verified torrent
1 Year+ - in Movies1.69 GB331121
Verified torrent
1 Year+ - in Movies1.07 GB13

Comments (0 Comments)




Please login or create a FREE account to post comments

Latest Searches

| magnate y valentino t | split scenes my cousin | the bold and the beautiful s30 ep7479 2016 12 09 | Elvira s halloween | Berlin sex Im a | fl studio producer 10 crack | hormones 2008 | samantha rone full service | LatinaSexTapes 16 12 10 Marta Lacroft Big Tit Latina Blows Client 1080p MP4 KTR | bow chicka wow wow |