Quick Browse
Movies
TV shows
Music
Games
Applications
Anime
Other
Facebook
Advertising

Friends
Torrent Download
Movie4u
1337x.to
Torrent Downloads




Iron Man Duology 720p Dual Audio [Hin-Eng]-=Ghunio=-[Filmy.pk]


    Seeders : 1      Leechers : 3

Trackers List

Tracker NameLast CheckStatusSeedersLeechers




Torrent File Content (18 files)


Iron Man Duology 720p Dual Audio [Hin-Eng]-=Ghunio=-[Filmy.pk]
     Bluray.jpg -
219.01 KB

     Downloaded From Filmy.PK.txt -
56 bytes

    Iron Man 2
          Iron Man 2 720p Dual Audio [Hin-Eng]-=Ghunio=-[Filmy.pk].mkv -
885.86 MB

          Sample.mkv -
4.69 MB

    Iron Man
          Iron Man 720p Dual Audio [Hin-Eng]-=Ghunio=-[Filmy.pk].mkv -
906.16 MB

          Sample.mkv -
6.32 MB

    Screens
          vlcsnap-2011-09-29-13h33m13s4.png -
719.91 KB

          vlcsnap-2011-09-29-13h37m18s155.png -
889.71 KB

          vlcsnap-2011-09-29-13h40m08s60.png -
898.02 KB

          vlcsnap-2011-09-29-13h42m52s179.png -
960.65 KB

          vlcsnap-2011-09-29-13h43m16s145.png -
421.36 KB

          vlcsnap-2011-09-29-13h45m03s198.png -
732.49 KB

          vlcsnap-2011-09-29-13h48m12s46.png -
420.79 KB

          vlcsnap-2011-09-29-13h49m06s49.png -
420.09 KB

          vlcsnap-2011-09-29-13h49m19s205.png -
636.06 KB

          vlcsnap-2011-09-29-13h49m48s224.png -
675.96 KB

          vlcsnap-2011-09-29-13h56m50s100.png -
1.11 MB

          vlcsnap-2011-09-29-13h59m19s42.png -
682.62 KB



Description



http://www.postimg.com/49000/photo-48427.jpg


[size=7][color=blue]Iron Man Duology 720p Dual Audio [Hin-Eng]-=Ghunio=-[Filmy.pk][/color][/size]

http://www.shotpix.com/images/78464309978122332310.png

[color=purple]Format : Matroska
Format version : Version 2
File size : 906 MiB
Duration : 2h 6mn
Overall bit rate : 1 005 Kbps
Movie name : Iron Man 2008
Encoded date : UTC 2011-09-24 05:15:35
Writing application : mkvmerge v4.9.1 ('Ich will')
Writing library : libebml v1.2.1 + libmatroska v1.1.1

Video
ID : 1
Format : AVC
Format/Info : Advanced Video Codec
Format profile : [email protected]
Format settings, CABAC : Yes
Format settings, ReFrames : 8 frames
Muxing mode : Header stripping
Codec ID : V_MPEG4/ISO/AVC
Duration : 2h 6mn
Bit rate : 750 Kbps
Width : 1 280 pixels
Height : 528 pixels
Display aspect ratio : 2.40:1
Frame rate : 23.976 fps
Color space : YUV
Chroma subsampling : 4:2:0
Bit depth : 8 bits
Scan type : Progressive
Bits/(Pixel*Frame) : 0.046
Stream size : 657 MiB (73%)
Writing library : x264

Audio #1
Codec ID/Hint : MP3
Duration : 2h 6mn
Bit rate mode : Variable
Bit rate : 128 Kbps
Channel(s) : 2 channels
Mode : Joint stereo
Sampling rate : 48.0 KHz
Stream size : 115 MiB (13%)
Title : Henry[~KSRR~]
Language : English

Audio #2
Codec ID/Hint : MP3
Duration : 2h 6mn
Bit rate mode : Constant
Bit rate : 128 Kbps
Channel(s) : 2 channels
Mode : Joint stereo
Sampling rate : 48.0 KHz
Stream size : 115 MiB (13%)
Title : Henry[~KSRR~]
Language : Hindi[/color]
http://img43.imageshack.us/img43/8356/screensin.png

http://www.postimg.com/49000/photo-48413.jpg

http://www.postimg.com/49000/photo-48414.jpg

http://www.postimg.com/49000/photo-48415.jpg

http://www.postimg.com/49000/photo-48416.jpg

http://www.postimg.com/49000/photo-48417.jpg

http://www.postimg.com/49000/photo-48418.jpg


[size=7][color=red]Iron Man 2010 Bluray[/color][/size]

http://www.shotpix.com/images/78464309978122332310.png

[COLOR="#006400"]
Format : Matroska
Format version : Version 2
File size : 886 MiB
Duration : 1h 59mn
Overall bit rate : 1 038 Kbps
Movie name : Iron Man 2010 Bluray 720p Dual Audio - Henry[~KSRR~]
Encoded date : UTC 2011-09-26 11:54:06
Writing application : mkvmerge v4.9.1 ('Ich will')
Writing library : libebml v1.2.1 + libmatroska v1.1.1

Video
ID : 1
Format : AVC
Format/Info : Advanced Video Codec
Format profile : [email protected]
Format settings, CABAC : Yes
Format settings, ReFrames : 8 frames
Muxing mode : Header stripping
Codec ID : V_MPEG4/ISO/AVC
Duration : 1h 59mn
Bit rate : 781 Kbps
Width : 1 280 pixels
Height : 544 pixels
Display aspect ratio : 2.35:1
Frame rate : 23.976 fps
Color space : YUV
Chroma subsampling : 4:2:0
Bit depth : 8 bits
Scan type : Progressive
Bits/(Pixel*Frame) : 0.047
Stream size : 650 MiB (73%)
Writing library : x264

Audio #1
Codec ID/Hint : MP3
Duration : 1h 59mn
Bit rate : 128 Kbps
Channel(s) : 2 channels
Mode : Joint stereo
Sampling rate : 48.0 KHz
Stream size : 109 MiB (12%)
Title : Henry[~KSRR~]
Language : English

Audio #2
Codec ID/Hint : MP3
Duration : 1h 59mn
Bit rate : 128 Kbps
Channel(s) : 2 channels
Mode : Joint stereo
Sampling rate : 48.0 KHz
Stream size : 109 MiB (12%)
Title : Henry[~KSRR~]
Language : Hindi[/COLOR]
http://img43.imageshack.us/img43/8356/screensin.png

http://www.postimg.com/49000/photo-48419.jpg

http://www.postimg.com/49000/photo-48420.jpg

http://www.postimg.com/49000/photo-48421.jpg

http://www.postimg.com/49000/photo-48422.jpg

http://www.postimg.com/49000/photo-48423.jpg

http://www.postimg.com/49000/photo-48424.jpg


[size=4][color=teal][font=System]Sample Included In Torrent[/font][/color][/size]

http://www.pix2links.com/images/13560747731827144040.gif


http://img89.imageshack.us/img89/5982/addrep.png


http://gi118.photobucket.com/groups/o83/QCY332JOA1/slqp2p1.gif

Related torrents

Torrent NameAddedSizeSeedLeechHealth
1 Year+ - in Movies1.58 GB11
1 Year+ - in Movies1.01 GB00
1 Year+ - in Movies5.3 GB414
1 Year+ - in Movies835.31 MB17
1 Year+ - in Movies968.16 MB00

Comments (0 Comments)




Please login or create a FREE account to post comments

Latest Searches

| Rod Stewart l | error lookup | NEW Ladies of London | Citrix XenDesktop Cookbook Third Edition | apps apk mod | Fucking Christmas Time DVDRip x264 | B EJ | Ghost Rider 2 2011 english | Nannaku Prematho i | rhett thomas album |