Quick Browse
Movies
TV shows
Music
Games
Applications
Anime
Other
Facebook
Advertising

Friends
Torrent Download
Movie4u
1337x.to
Torrent Downloads




Islamic Songs By (Maher Zain) (Ahmed Bukhatir) (Yusuf Islam)


    Seeders : 27      Leechers : 2
Hash :A8E755E3F98C6DD711230943B8DA59F27F563200
Added :1 Year+ by kasimji in Other - Other
Size :314.91 MB
Stream :WATCH ONLINE @ Movie4u


Islamic Songs By (Maher Zain) (Ahmed Bukhatir) (Yusuf Islam)
Free and Fast Download with Usenet 300GB+ free







Trackers List

Tracker NameLast CheckStatusSeedersLeechers




Torrent File Content (22 files)


Islamic Songs By (Maher Zain) (Ahmed Bukhatir) (Yusuf Islam)
     Nasheed- Yaa Taybaa.avi -
64.37 MB

     Maher Zain - Ya Nabi Salam Alaika.avi -
42.01 MB

     NEW VERSION!!!!!! Ahmed Bukhatir -Last Breath-.avi -
36.48 MB

     Yusuf Islam - Father & Son.avi -
35.59 MB

     Ahmed Bukhatir - Ya Ummi (My mother).avi -
34.28 MB

     Forgive Me - Ahmed Bukhatir (English Subtitles).avi -
27.29 MB

     Maher Zain- Yanabi Salam alayka.avi -
17.53 MB

     A is for Allah by Yusuf Islam.avi -
17.08 MB

     Maher Zain - Baraka Allahu lakuma with lyrics..avi -
14.33 MB

     Yusuf Islam Your mother.avi -
13.87 MB

     Maher Zain - For The Rest Of My Life with Lyrics.avi -
11.81 MB

     Ahmed Bukhatir.jpg -
88.11 KB

     Maher Zain.jpg -
75.8 KB

     Singers.jpg -
54.92 KB

     Yusuf Islam.jpg -
48.79 KB

     Info.txt -
1.67 KB

     Kasimji.txt -
1.35 KB

     Visit @ www.AhaShare.com.txt -
59 bytes

     Torrent downloaded from TorrentState.com.txt -
48 bytes

     Torrent downloaded from limetorrent.com.txt -
47 bytes

     Torrent downloaded from Demonoid.com.txt -
47 bytes

     Torrent downloaded from h33t.com.txt -
43 bytes



Description



General
Complete name : Islamic Songs By (Maher Zain) (Ahmed Bukhatir) (Yusuf Islam)A is for Allah by Yusuf Islam.avi
Format : AVI
Format/Info : Audio Video Interleave
File size : 17.1 MiB
Duration : 4mn 48s
Overall bit rate : 496 Kbps
Writing application : Lavf52.39.1

Video
ID : 0
Format : xvid
Codec ID : xvid
Duration : 4mn 48s
Bit rate : 423 Kbps
Width : 320 pixels
Height : 240 pixels
Display aspect ratio : 4:3
Frame rate : 12.019 fps
Bits/(Pixel*Frame) : 0.458
Stream size : 14.5 MiB (85%)

Audio
ID : 1
Format : MPEG Audio
Format version : Version 1
Format profile : Layer 3
Mode : Joint stereo
Mode extension : MS Stereo
Codec ID : 55
Codec ID/Hint : MP3
Duration : 4mn 48s
Bit rate mode : Constant
Bit rate : 64.0 Kbps
Channel(s) : 2 channels
Sampling rate : 44.1 KHz
Compression mode : Lossy
Stream size : 2.20 MiB (13%)
Alignment : Aligned on interleaves
Interleave, duration : 26 ms (0.31 video frame)

Ahmed Bukhatir was born in Sharjah, United Arab Emirates in 1975 to an influential family in Sharjah, UAE. At an early age Ahmed started recitations of Quran at Islamic centres in his home town Sharjah, however it was not until 2000 that Ahmed launched his first official album Entasaf Al-Layl and started gaining popularity for his voice. Ahmed continues to sing without musical instruments in respect of his religious values and does not intend to use them in the future. His third album “Samtan,” which consisted of his first English nasheed “Last Breath,” gained popularity beyond the borders of the Middle East, which encouraged him to sing more English nasheeds and even a French nasheed. His live performances have attracted sizeable audiences, such as at a Global Peace and Unity (GPU) event in the United Kingdom in 2006 that gained an audience of thirty-five thousand attendees to see the various speakers and performers. Along with the nasheed singing Ahmed Bukhatir is also a businessman and a senator of Sharjah government in United Arab Emirates.
He has participated in many charity events including the Muslim Aid Event in London, United Kingdom, in 2010. Ahmed continues to deliver the message of Islam through his voice to the world. Along with Islamic nasheeds, Ahmed also performs nasheeds which place emphasis on community issues in every society.

Maher Zain (Arabic: ماهر زين‎; born in Tripoli, Lebanon on March 16, 1981) is a Muslim Swedish R&B singer, songwriter and music producer of Lebanese origin. He also resided for a while in the United States. His debut album Thank You Allah released on 1 November 2009. He sings mainly in English, but also in other languages, including Arabic, French, Urdu, Turkish and Malay.

Yusuf Islam (born Steven Demetre Georgiou, (born 21 July 1948) originally and commonly known by his former stage name Cat Stevens, is an English musician. He is a singer-songwriter, multi-instrumentalist, educator, philanthropist, and prominent convert to Islam.
His early 1970s record albums Tea for the Tillerman and Teaser and the Firecat were both certified as Triple Platinum by the RIAA in the United States; his 1972 album Catch Bull at Four sold half a million copies in the first two weeks of release alone and was Billboard's number-one LP for three consecutive weeks. He has also earned two ASCAP songwriting awards in consecutive years for "The First Cut Is the Deepest", which has been a hit single for four different artists.
Stevens converted to Islam in December 1977 and adopted his Muslim name, Yusuf Islam, the following year. In 1979, he auctioned all his guitars for charity and left his music career to devote himself to educational and philanthropic causes in the Muslim community. He has been given several awards for his work in promoting peace in the world, including 2003's World Award, the 2004 Man for Peace Award, and the 2007 Mediterranean Prize for Peace. In 2006, he returned to pop music with his first album of new pop songs in 28 years, entitled An Other Cup. He now goes professionally by the single name Yusuf. His newest album, Roadsinger, was released on 5 May 2009.

Related torrents

Torrent NameAddedSizeSeedLeechHealth
1 Year+ - in Music40.11 MB00
3 months ago - in Music189.81 MB56
3 months ago - in Music189.81 MB14
5 months ago - in Other3.75 MB00
5 months ago - in Other4.39 MB00

Comments (0 Comments)




Please login or create a FREE account to post comments

Latest Searches

| james brown sub | perfect creamy pussy | ohmi | the i 1 april 2016 british newspaper independent pdf | army fm 3 0 field manual | Deadpool 2016 720p BluRay dual | kai season 1 part 2 | storks 2016 1080p BRRip x264 AAC ETRG | Gia DiMarcokink | blood c the last dark movie |