Quick Browse
Movies
TV shows
Music
Games
Applications
Anime
Other
Facebook
Advertising

Friends
Torrent Download
Movie4u
1337x.to
Torrent Downloads




Verified torrent Its Kind of a Funny Story [2010] BRRip x264 AAC-V3nom


    Seeders : 1      Leechers : 0
Hash :C14F1286BC93620A044745C99019D013D6335C64
Added :1 Year+ by sebastianUb3rVerified torrent uploader in Movies
Size :353.2 MB
Stream :WATCH ONLINE @ Movie4u


Its Kind of a Funny Story [2010] BRRip x264 AAC-V3nom
Free and Fast Download with Usenet 300GB+ free







Trackers List

Tracker NameLast CheckStatusSeedersLeechers




Torrent File Content (16 files)


Its Kind of a Funny Story [2010] BRRip x264 AAC-V3nom
    Subs
          Its Kind of a Funny Story [2010] BRRip x264 AAC-V3nom [Ind].txt -
112.87 KB

          Its Kind of a Funny Story [2010] BRRip x264 AAC-V3nom [Eng].srt -
107.88 KB

          Its Kind of a Funny Story [2010] BRRip x264 AAC-V3nom [Esp].srt -
97.9 KB

          Its Kind of a Funny Story [2010] BRRip x264 AAC-V3nom [Cro].srt -
97.26 KB

    Torrent Download Site's
          Torrent downloaded from tracker.Btarena.org.txt -
43 bytes

          Torrent downloaded from Extratorrent.com.txt -
40 bytes

          Torrent Downloaded from Limetorrents.com.txt -
40 bytes

          Torrent downloaded from divxhunt.mine.su.txt -
40 bytes

          Torrent downloaded from Thepiratebay.se.txt -
39 bytes

          Torrent downloaded from 1337x.org.txt -
33 bytes

          Torrent downloaded from Kat.ph.txt -
30 bytes

     Its Kind of a Funny Story [2010] BRRip x264 AAC-V3nom.m4v -
348.99 MB

     sample.m4v -
3.48 MB

     Its Kind of a Funny Story [2010] BRRip x264 AAC-V3nom.jpg -
183.74 KB

     V3nom.gif -
148.22 KB

     Torrent Uploaded by V3nom.txt -
25 bytes



Description



http://img801.imageshack.us/img801/4751/itskindofafunnystory.jpg


[size=200][color=black]PLOT[/color][/size]

[code]A clinically depressed teenager gets a new start
after he checks himself into an adult psychiatric ward. [/code]

[size=200][color=black]IMDB[/color][/size]

[code]http://www.imdb.com/title/tt0804497/[/code]

[size=200][color=black]MOVIE INFO[/color][/size]

[code]Its Kind of a Funny Story [2010] BRRip x264 AAC-V3nom

Format : MPEG-4
Format profile : Base Media / Version 2
Codec ID : mp42
File size : 349 MiB
Duration : 1h 41mn
Overall bit rate mode : Variable
Overall bit rate : 482 Kbps
Encoded date : UTC 2012-12-25 16:15:01
Tagged date : UTC 2012-12-25 16:56:28

Video
ID : 1
Format : AVC
Format/Info : Advanced Video Codec
Format profile : [email protected]
Format settings, CABAC : Yes
Format settings, ReFrames : 4 frames
Codec ID : avc1
Codec ID/Info : Advanced Video Coding
Duration : 1h 41mn
Bit rate mode : Variable
Bit rate : 351 Kbps
Width : 640 pixels
Height : 336 pixels
Display aspect ratio : 1.85:1
Original display aspect ratio : 1.85:1
Frame rate mode : Variable
Frame rate : 23.976 fps
Minimum frame rate : 5.994 fps
Maximum frame rate : 23.981 fps
Color space : YUV
Chroma subsampling : 4:2:0
Bit depth : 8 bits
Scan type : Progressive
Bits/(Pixel*Frame) : 0.068
Stream size : 254 MiB (73%)
Writing library : x264 core 112

Audio
ID : 2
Format : AAC
Format/Info : Advanced Audio Codec
Format profile : LC
Codec ID : 40
Duration : 1h 39mn
Bit rate mode : Variable
Bit rate : 128 Kbps
Maximum bit rate : 228 Kbps
Channel(s) : 2 channels
Channel positions : Front: L R
Sampling rate : 48.0 KHz
Compression mode : Lossy
Delay relative to video : 209ms
Stream size : 91.1 MiB (26%)
Language : English
Encoded date : UTC 2012-12-25 16:15:01
Tagged date : UTC 2012-12-25 16:56:23[/code]

[size=200][color=black]SOURCE[/color][/size]

[code]It's Kind of a Funny Story (2010) 720p BrRip x264 - YIFY(Thanks)[/code]

[size=200][color=black]SCREENSHOTS[/color][/size]

http://img543.imageshack.us/img543/9008/itskindofafunnystory201k.jpg


http://kastatic.com/i2/users/133df62bbf28e62494bb17fe11078f1a.gif
http://kastatic.com/i2/users/133df62bbf28e62494bb17fe11078f1a.gif

Related torrents

Torrent NameAddedSizeSeedLeechHealth
1 Year+ - in Movies1.55 GB00
4 months ago - in Movies2.71 GB615
1 Year+ - in Movies522.15 MB51
9 months ago - in Movies1.23 GB00
9 months ago - in Movies1.93 GB00

Comments (0 Comments)




Please login or create a FREE account to post comments

Latest Searches

| maci maguire xxx | blackisbetter kelly | dancing own my own tiesto remix | LOST RIVER I | Manhunt 720p | tech n 9 hood go crazy | WoodmanCastingX Petra | Erotica X Sara Luvv Every Part Of Me 2016 08 19 | WoodmanCastingX Petra | Mclaren pdf |