Quick Browse
Movies
TV shows
Music
Games
Applications
Anime
Other
Facebook
Advertising

Friends
Torrent Download
Movie4u
1337x.to
Torrent Downloads




Iva Bittova & Nederlands Blazers Ensemble 2002 avi


    Seeders : 0      Leechers : 0
Hash :96DAF330294338AE1837C7C3220F647A6FE17FEC
Added :1 Year+ in Music - Music
Size :688 MB
Stream :WATCH ONLINE @ Movie4u


Iva Bittova & Nederlands Blazers Ensemble 2002 avi
Free and Fast Download with Usenet 300GB+ free







Trackers List

Tracker NameLast CheckStatusSeedersLeechers




Torrent File Content (1 file)


     iva bittova and nederlands blazers ensemble 2002.avi -
688 MB



Description



tvrip

Video
Format : MPEG-4 Visual
Format settings, BVOP : Yes
Format settings, QPel : No
Format settings, GMC : No warppoints
Format settings, Matrix : Default
Muxing mode : Packed bitstream
Codec ID : DX50
Codec ID/Hint : DivX 5
Duration : 46mn 54s
Bit rate : 1 849 Kbps
Width : 720 pixels
Height : 576 pixels
Display aspect ratio : 5/4
Frame rate : 25.000 fps
Standard : PAL
Resolution : 24 bits
Colorimetry : 4:2:0
Scan type : Progressive
Bits/(Pixel*Frame) : 0.178
Stream size : 620 MiB (90%)
Title : Video
Writing library : DivX 6.2.5 (UTC 2006-06-16)

Audio
Format : MPEG Audio
Format version : Version 1
Format profile : Layer 3
Codec ID : 55
Codec ID/Hint : MP3
Duration : 46mn 54s
Bit rate mode : Constant
Bit rate : 192 Kbps
Channel(s) : 2 channels
Sampling rate : 48.0 KHz
Resolution : 16 bits
Stream size : 64.4 MiB (9%)
Alignment : Split accross interleaves
Interleave, duration : 40 ms (1.00 video frame)
Interleave, preload duration : 50 ms
Title : Audio

Related torrents

Torrent NameAddedSizeSeedLeechHealth
1 Year+ - in Music173.02 MB00
3 months ago - in Other124.1 MB00
1 Year+ - in Music457.78 MB12
1 Year+ - in Music302.71 MB20
1 Year+ - in Movies675.1 MB1758

Comments (0 Comments)




Please login or create a FREE account to post comments

Latest Searches

| dual audio hindi martian | madame secretary | veep s04e09 720p | legalporno tina hot kendra star | Famous | BOOTY JACKIN 5 | AIR Music Tech Hybrid v3 0 7 WIN | Younger S03E09 HDTV x264 FLEET | big tits british | RPG |