Quick Browse
TV shows

Latest Articles

Torrent Download
Free Movies
Torrent Downloads

Verified torrent J Edgar 2011 720p BRRip XviD AC3-26k

    Seeders : 1      Leechers : 0

Hash :972A705AD86D07F1DD8EC56FB1EE037C0C456534
Added :1 Year+ by memory100Verified torrent uploader in Movies
Size :3.5 GB
Stream :Watch Online Full Movie @ Movie4u
Share :

J Edgar 2011 720p BRRip XviD AC3-26k
Download Direct And Anonymously

Warning! Do not Download Torrents Without a VPN!
Your IP Address is .   And Location is
Your Internet Provider and Government can track your torrent Activity!  Hide your IP ADDRESS with a VPN!
We Strongly Recommend Using CyberGhost VPN to Anonymize your Torrenting.

Note :

Please Update (Trackers Info) Before Downloading Torrents to See Updated Seeders And Leechers for Batter Download Speed.

Trackers List

Tracker NameLast CheckStatusSeedersLeechers

Torrent File Content (13 files)

J Edgar 2011 720p BRRip XviD AC3-26k
     1.png -
699.67 KB

     2.png -
534.9 KB

     26k nfo.nfo -
3.74 KB

     3.png -
522.3 KB

     4.png -
827.49 KB

     att-networks.com.txt -
39 bytes

     HDSceneRG.txt -
115 bytes

     J Edgar 2011 720p BRRip XviD AC3-26k.avi -
3.5 GB

     J Edgar 2011 720p BRRip XviD AC3-26k.jpg -
119.11 KB

     sceneunderground.org.txt -
77 bytes

     Torrent downloaded from Demonoid.me.txt -
46 bytes

     Torrent downloaded from rarbg.com.txt.txt -
0 bytes

     YouTube Latest Releases And Archive.txt -
80 bytes




J Edgar 2011 720p BRRip XviD AC3-26k


As the face of law enforcement in America for almost 50 years, J. Edgar Hoover was feared and admired,
reviled and revered. But behind closed doors, he held secrets that would have destroyed his image,
his career and his life..

Sources - J.Edgar.2011.720p.BluRay.x264-SPARKS.....Thanks :P

Format : AVI
Format/Info : Audio Video Interleave
Format profile : OpenDML
File size : 3.50 GiB
Duration : 2h 16mn
Overall bit rate : 3 656 Kbps
Writing library : VirtualDub build 32839/release

ID : 0
Format : MPEG-4 Visual
Format profile : Advanced [email protected]
Format settings, BVOP : 2
Format settings, QPel : No
Format settings, GMC : No warppoints
Format settings, Matrix : Default (H.263)
Codec ID : XVID
Codec ID/Hint : XviD
Duration : 2h 16mn
Bit rate : 3 006 Kbps
Width : 1 280 pixels
Height : 536 pixels
Display aspect ratio : 2.40:1
Frame rate : 23.976 fps
Color space : YUV
Chroma subsampling : 4:2:0
Bit depth : 8 bits
Scan type : Progressive
Compression mode : Lossy
Bits/(Pixel*Frame) : 0.183
Stream size : 2.87 GiB (82%)
Writing library : XviD 1.2.1 (UTC 2008-12-04)

ID : 1
Format : AC-3
Format/Info : Audio Coding 3
Mode extension : CM (complete main)
Codec ID : 2000
Duration : 2h 16mn
Bit rate mode : Constant
Bit rate : 640 Kbps
Channel(s) : 6 channels
Channel positions : Front: L C R, Side: L R, LFE
Sampling rate : 48.0 KHz
Bit depth : 16 bits
Compression mode : Lossy
Stream size : 627 MiB (18%)
Alignment : Split accross interleaves
Interleave, duration : 42 ms (1.00 video frame)
Interleave, preload duration : 500 ms

Notes -
Did my thing.. turned out real nice... enjoy
Dont know how it happened but the subs got
hardcoded sumwhere along the lines.. i didnt set
it up to do it but it did it anyway..lol







Alternative screens:

To all the people who have helped me you know who you are

Anything to offer email us @: [email protected]


Thank you smallz for banner!

Related torrents

Torrent NameAddedSizeSeedLeechHealth
1 Year+ - in Movies2.47 GB00
Verified torrent
1 Year+ - in Movies2.47 GB10
1 Year+ - in Movies3.33 GB00
1 Year+ - in Movies3.33 GB00
Verified torrent
1 Year+ - in Movies3.33 GB10

Note :

Feel free to post any comments about this torrent, including links to Subtitle, samples, screenshots, or any other relevant information. Please Dont Download anything from Comments, And Dont Post Links to Streaming Sites like Fmovies, Xmovies8, 123Movies, GoMovies, CMovieshd, Solarmovie, Watchfree, Putlockers, GoStream, m4ufree etc.

Comments (0 Comments)

Please login or create a FREE account to post comments

Latest Searches

| pop music sheet | Sei passi nel giallo Souvenirs | Gomorra S03 E07 1080p x264 ITA ENG SUBS | Matrix dual audio hindi english | churchill 720p x265 | Treasure hunt fuck isis love | jason tip toe remix | Sis Loves Me Niki Snow | Pokemon Uranium FULL GAME | sexy tits s |