Quick Browse
Movies
TV shows
Music
Games
Applications
Anime
Other
Facebook
Advertising

Friends
Torrent Download
Movie4u
1337x.to
Torrent Downloads




Verified torrent J Edgar 2011 720p BRRip XviD AC3-26k


    Seeders : 1      Leechers : 0
Hash :972A705AD86D07F1DD8EC56FB1EE037C0C456534
Added :1 Year+ by memory100Verified torrent uploader in Movies
Size :3.5 GB
Stream :WATCH ONLINE @ Movie4u


J Edgar 2011 720p BRRip XviD AC3-26k
Free and Fast Download with Usenet 300GB+ free







Trackers List

Tracker NameLast CheckStatusSeedersLeechers




Torrent File Content (13 files)


J Edgar 2011 720p BRRip XviD AC3-26k
     1.png -
699.67 KB

     2.png -
534.9 KB

     26k nfo.nfo -
3.74 KB

     3.png -
522.3 KB

     4.png -
827.49 KB

     att-networks.com.txt -
39 bytes

     HDSceneRG.txt -
115 bytes

     J Edgar 2011 720p BRRip XviD AC3-26k.avi -
3.5 GB

     J Edgar 2011 720p BRRip XviD AC3-26k.jpg -
119.11 KB

     sceneunderground.org.txt -
77 bytes

     Torrent downloaded from Demonoid.me.txt -
46 bytes

     Torrent downloaded from rarbg.com.txt.txt -
0 bytes

     YouTube Latest Releases And Archive.txt -
80 bytes



Description



http://img805.imageshack.us/img805/1007/jedger.jpg

[code]

J Edgar 2011 720p BRRip XviD AC3-26k

http://www.imdb.com/title/tt1616195/

Plot:
As the face of law enforcement in America for almost 50 years, J. Edgar Hoover was feared and admired,
reviled and revered. But behind closed doors, he held secrets that would have destroyed his image,
his career and his life..

Sources - J.Edgar.2011.720p.BluRay.x264-SPARKS.....Thanks :P


Format : AVI
Format/Info : Audio Video Interleave
Format profile : OpenDML
File size : 3.50 GiB
Duration : 2h 16mn
Overall bit rate : 3 656 Kbps
Writing library : VirtualDub build 32839/release

Video
ID : 0
Format : MPEG-4 Visual
Format profile : Advanced [email protected]
Format settings, BVOP : 2
Format settings, QPel : No
Format settings, GMC : No warppoints
Format settings, Matrix : Default (H.263)
Codec ID : XVID
Codec ID/Hint : XviD
Duration : 2h 16mn
Bit rate : 3 006 Kbps
Width : 1 280 pixels
Height : 536 pixels
Display aspect ratio : 2.40:1
Frame rate : 23.976 fps
Color space : YUV
Chroma subsampling : 4:2:0
Bit depth : 8 bits
Scan type : Progressive
Compression mode : Lossy
Bits/(Pixel*Frame) : 0.183
Stream size : 2.87 GiB (82%)
Writing library : XviD 1.2.1 (UTC 2008-12-04)

Audio
ID : 1
Format : AC-3
Format/Info : Audio Coding 3
Mode extension : CM (complete main)
Codec ID : 2000
Duration : 2h 16mn
Bit rate mode : Constant
Bit rate : 640 Kbps
Channel(s) : 6 channels
Channel positions : Front: L C R, Side: L R, LFE
Sampling rate : 48.0 KHz
Bit depth : 16 bits
Compression mode : Lossy
Stream size : 627 MiB (18%)
Alignment : Split accross interleaves
Interleave, duration : 42 ms (1.00 video frame)
Interleave, preload duration : 500 ms


Notes -
Did my thing.. turned out real nice... enjoy
Dont know how it happened but the subs got
hardcoded sumwhere along the lines.. i didnt set
it up to do it but it did it anyway..lol

[/code]

Screens:
http://i.imgur.com/5ctZP.png

http://i.imgur.com/reQMn.png

http://img221.imageshack.us/img221/2923/jedgar2011720pbrripxvid.jpg

http://img827.imageshack.us/img827/9933/46829567.png

http://img855.imageshack.us/img855/8770/23771199.png


Alternative screens:
http://www.hotimg.com/image/a9qRSsp
http://dippic.com/9ei4h6bpjb5v
http://imgdepot.org/show/20120306/2/195083_3.png
http://www.imageporter.com/9t83re9o1hmj/1.png

Greetz:
Xtreme Encode|FYA|ILLUMANTI|CM8|RX|VISI​ON|HDSCENE|xTriLL|DTRG|CRYS|REMIX​HD|BIDA|RX|REFILL|INSPiRAL|SIC|
|HOPE|Anonymous|GooN
To all the people who have helped me you know who you are

Anything to offer email us @: [email protected]


http://img851.imageshack.us/img851/5503/26ks.jpg

Thank you smallz for banner!

Related torrents

Torrent NameAddedSizeSeedLeechHealth
7 months ago - in Movies2.47 GB00
Verified torrent
1 Year+ - in Movies2.47 GB10
7 months ago - in Movies3.33 GB00
1 Year+ - in Movies3.33 GB00
Verified torrent
1 Year+ - in Movies3.33 GB10

Comments (0 Comments)




Please login or create a FREE account to post comments

Latest Searches

| Mega Collection of Desi and Clips | m vitti ita | Paranormal Witness S03E17 The Visitors HDTV x264 SPASM | Supergirl season 2 episode 1 8 | La Arrolladora Banda El Limon | m s carter | Florence q | One Wet Cheerleader Ramon Peta Jensen | X Art Blake Eden And Marley Brinx Girl Time XXX SD December 03 2016 NEW | marry y i |