Quick Browse
Movies
TV shows
Music
Games
Applications
Anime
Other

Donate and Support

Friends
Torrents.me
Torrent Download
Free Movies
1337x
RARBG
Torrent Downloads

Verified torrent Jack Reacher 2012 720p CAM READNFO XVID-26K


    Seeders : 1      Leechers : 0
Hash :49508FB1F74CEF09CE27360D18AC67E99253EFF8
Added :1 Year+ by memory100Verified torrent uploader in Movies
Size :2.37 GB
Stream :Watch Full Movies Online @ Movie4u
Share :


Jack Reacher 2012 720p CAM READNFO XVID-26K
Anonymous and free Direct Download







Warning! Do not Download Torrents Without a VPN!
Your IP Address is .   And Location is
Your Internet Provider and Government can track your torrent Activity!  Hide your IP ADDRESS with a VPN!
We Strongly Recommend Using SpyOFF Torrent VPN to Anonymize your Torrenting. It's FREE For 15 Days!

Note :

Please Update (Trackers Info) Before Downloading Torrents to See Updated Seeders And Leechers for Batter Download Speed.

Trackers List

Tracker NameLast CheckStatusSeedersLeechers




Torrent File Content (8 files)


Jack.Reacher.2012.720p.CAM.READNFO.XVID-26K
     Jack.Reacher.2012.720p.CAM.READNFO.XVID-26K.avi -
2.3 GB

     Sample2.avi -
45.51 MB

     Sample1.avi -
29.84 MB

     Jack.Reacher.2012.720p.CAM.READNFO.XVID-26K.nfo -
10.12 KB

     Meggafast.com.txt -
124 bytes

     YouTube Latest Releases And Archive.txt -
86 bytes

     Sceneunderground.org.txt -
77 bytes

     Torrent downloaded from rarbg.com.txt.txt -
0 bytes



Description



http://img19.imageshack.us/img19/371/jacd.jpg

[code]
Jack.Reacher.2012.720p.CAM.READNFO.XVID-26K

http://uk.imdb.com/title/tt0790724/

Plot:
A homicide investigator digs deeper into a case involving a trained military sniper who shot five random victims.

Sources - Audio-thnx....Thanks :P
VIDEO-1080p files.....Thanks :P
Subs-N/A....
Video
ID : 0
Format : MPEG-4 Visual
Format profile : [email protected]L5
Format settings, BVOP : No
Format settings, QPel : No
Format settings, GMC : No warppoints
Format settings, Matrix : Default (H.263)
Codec ID : XVID
Codec ID/Hint : XviD
Duration : 2h 4mn
Bit rate : 2 500 Kbps
Width : 1 280 pixels
Height : 608 pixels
Display aspect ratio : 2.105
Frame rate : 29.970 fps
Color space : YUV
Chroma subsampling : 4:2:0
Bit depth : 8 bits
Scan type : Progressive
Compression mode : Lossy
Bits/(Pixel*Frame) : 0.107
Stream size : 2.18 GiB (95%)
Writing library : XviD 64

Audio
ID : 1
Format : MPEG Audio
Format version : Version 1
Format profile : Layer 3
Codec ID : 55
Codec ID/Hint : MP3
Duration : 2h 4mn
Bit rate mode : Constant
Bit rate : 128 Kbps
Channel(s) : 2 channels
Sampling rate : 48.0 KHz
Compression mode : Lossy
Delay relative to video : 20ms
Stream size : 114 MiB (5%)
Alignment : Split accross interleaves
Interleave, duration : 16360 ms (490.30 video frames)

Notes -
readnfo.. has the flicker on the video ran some deflicker filters and the regular filters for a cam... enjoy until

line shows up.

[/code]

Screens:
http://img18.imageshack.us/img18/7018/vlcsnap2012122722h45m13.png

http://img688.imageshack.us/img688/7678/vlcsnap2012122722h45m35.png

http://img23.imageshack.us/img23/5434/vlcsnap2012122722h45m39.png

http://img594.imageshack.us/img594/9604/vlcsnap2012122722h45m56.png

http://img42.imageshack.us/img42/1551/vlcsnap2012122722h45m19.png

http://img560.imageshack.us/img560/237/vlcsnap2012122722h45m26.png

http://i.imgur.com/vdyVh.png

http://i.imgur.com/QAZ8Z.png

http://i.imgur.com/jLTtH.jpg

http://i.imgur.com/P06RP.png

http://i.imgur.com/XW51C.jpg

http://i.imgur.com/on9pr.jpg



Greetz:
XtremeEncode|CM8|RX|VISION|HDSCENE|xTriLL|DTRG|CRYS|BIDA|RX|REFILL|INSPiRAL|AXED|HOPE|Anonymous|NOIR|Blackjesus|

Gabroo Punjab Deh|UNiQUE|DQ1|RESiSTANCE|HS||LEGION|STN|BOBBYBLUE|LIFT

To all the people who have helped me you know who you are

Anything to offer email us @: [email protected]

http://www.youtube.com/watch?v=2vAMxKvZqwU&feature=related

Related torrents

Torrent NameAddedSizeSeedLeechHealth
1 Year+ - in Movies2.37 GB118
1 Year+ - in Movies2.23 GB1564
1 Year+ - in Movies2.23 GB312
1 Year+ - in Movies2.31 GB10
1 Year+ - in Movies2.31 GB15

Comments (0 Comments)




Please login or create a FREE account to post comments

Latest Searches

| XXL Creampie | juicy j ultimate | universal 100 | Big Brother S17E37 | star wars battlefront renegade squadron squadron | Bruckner Thielemann | Gwen Stefani break my heart | historys ultimate spies s01e06 xvid afg | John Wick 2 2017 1080p 5 1 | tupaceminem |