Quick Browse
Movies
TV shows
Music
Games
Applications
Anime
Other

Donate and Support

Friends
Torrents.me
Torrent Download
Free Movies
1337x
RARBG
Torrent Downloads

Verified torrent Jack Reacher 2012 CAM READNFO XVID-26K


    Seeders : 1      Leechers : 0
Hash :97C564335B06B7679548AC5ED5758F5B9562FC6E
Added :1 Year+ by memory100Verified torrent uploader in Movies
Size :1.44 GB
Stream :Watch Full Movies Online @ Movie4u
Share :


Jack Reacher 2012 CAM READNFO XVID-26K
Anonymous and free Direct Download







Warning! Do not Download Torrents Without a VPN!
Your IP Address is .   And Location is
Your Internet Provider and Government can track your torrent Activity!  Hide your IP ADDRESS with a VPN!
We Strongly Recommend Using SpyOFF Torrent VPN to Anonymize your Torrenting. It's FREE For 15 Days!

Note :

Please Update (Trackers Info) Before Downloading Torrents to See Updated Seeders And Leechers for Batter Download Speed.

Trackers List

Tracker NameLast CheckStatusSeedersLeechers




Torrent File Content (8 files)


Jack.Reacher.2012.CAM.READNFO.XVID-26K
     Jack.Reacher.2012.CAM.READNFO.XVID-26K.avi -
1.42 GB

     Sample1.avi -
25.02 MB

     Sample2.avi -
389.04 KB

     Jack.Reacher.2012.CAM.READNFO.XVID-26K.nfo -
10.16 KB

     Meggafast.com.txt -
124 bytes

     YouTube Latest Releases And Archive.txt -
86 bytes

     Sceneunderground.org.txt -
77 bytes

     Torrent downloaded from rarbg.com.txt.txt -
0 bytes



Description



http://img43.imageshack.us/img43/2592/jackoj.jpg

[code]
Jack.Reacher.2012.CAM.READNFO.XVID-26K

http://uk.imdb.com/title/tt1446192/

Plot:
When the evil spirit Pitch launches an assault on Earth, the Immortal Guardians team up to protect the innocence

of children all around the world.

Sources - Audio-thnxs....Thanks :P
VIDEO-1080p.....Thanks :P
Subs-N/A....
Video
ID : 0
Format : MPEG-4 Visual
Format profile : [email protected]
Format settings, BVOP : No
Format settings, QPel : No
Format settings, GMC : No warppoints
Format settings, Matrix : Default (H.263)
Codec ID : XVID
Codec ID/Hint : XviD
Duration : 2h 4mn
Bit rate : 1 494 Kbps
Width : 720 pixels
Height : 342 pixels
Display aspect ratio : 2.105
Frame rate : 29.970 fps
Color space : YUV
Chroma subsampling : 4:2:0
Bit depth : 8 bits
Scan type : Progressive
Compression mode : Lossy
Bits/(Pixel*Frame) : 0.202
Stream size : 1.30 GiB (92%)
Writing library : XviD 64

Audio
ID : 1
Format : MPEG Audio
Format version : Version 1
Format profile : Layer 3
Codec ID : 55
Codec ID/Hint : MP3
Duration : 2h 4mn
Bit rate mode : Constant
Bit rate : 128 Kbps
Channel(s) : 2 channels
Sampling rate : 48.0 KHz
Compression mode : Lossy
Delay relative to video : 12ms
Stream size : 114 MiB (8%)
Alignment : Split accross interleaves
Interleave, duration : 16360 ms (490.30 video frames)

Notes -

WHY READNFO.. HAS FLICKER FEW AR CHANGES DUE TO CROP... OVERAL NOT A BAD COPY HANDLES THE DARKER SCENES WELL..
was given the 1080p files from a close friend,, resized, cropped rotated, denoised all the things that needed to

be done to a cam... enjoy 720p and 1080p soon...it is in sync by the way...

[/code]

Screens:
http://img577.imageshack.us/img577/3188/vlcsnap2012122703h45m30.png

http://img268.imageshack.us/img268/8686/vlcsnap2012122703h45m34.png

http://img208.imageshack.us/img208/2955/vlcsnap2012122703h45m42.png

http://img171.imageshack.us/img171/7633/vlcsnap2012122703h45m48.png

http://img20.imageshack.us/img20/3425/vlcsnap2012122703h45m54.png

http://i.imgur.com/0NP5E.png

http://i.imgur.com/P71HX.png

http://i.imgur.com/upVTs.png

http://i.imgur.com/MFXIA.png


Greetz:
XtremeEncode|CM8|RX|VISION|HDSCENE|xTriLL|DTRG|CRYS|BIDA|RX|REFILL|INSPiRAL|AXED|HOPE|Anonymous|NOIR|Blackjesus|

Gabroo Punjab Deh|UNiQUE|DQ1|RESiSTANCE|HS||LEGION|STN|BOBBYBLUE|LIFT

To all the people who have helped me you know who you are

Anything to offer email us @: [email protected]

http://www.youtube.com/watch?v=2vAMxKvZqwU&feature=related

Related torrents

Torrent NameAddedSizeSeedLeechHealth
1 Year+ - in Movies1.44 GB1110
1 Year+ - in Movies1.49 GB48
1 Year+ - in Movies1.51 GB112
1 Year+ - in Movies722.18 MB10
1 Year+ - in Movies819.9 MB00

Comments (0 Comments)




Please login or create a FREE account to post comments

Latest Searches

| fantastic fear of everything 1080p | Windows KMS Activator Ultimate 2016 v2 8 | Nubiles 16 07 30 Bea Wolf | fuck daddys | b howard songs | The Amazing World of Gumball S04E27 The Awkwardness 720p HDTV x264 W4F | Mimic 1997 nl | VA Harley Davidson Road Songs | Allegiance complete Season 1 | Group 1 Crew Fearless 2012 320kbps Mp3 |