Quick Browse
Movies
TV shows
Music
Games
Applications
Anime
Other

Donate and Support

Friends
Torrents.me
Torrent Download
Free Movies
1337x
RARBG
Torrent Downloads

Verified torrent Jack Reacher 2012 CAMRip English


    Seeders : 1      Leechers : 4
Hash :10151F7658244B9DEF25D77775FE7F84B5DF4E18
Added :1 Year+ by souravfileVerified torrent uploader in Movies
Size :1.37 GB
Stream :Watch Full Movies Online @ Movie4u
Share :


Jack Reacher 2012 CAMRip English
Anonymous and free Direct Download







Warning! Do not Download Torrents Without a VPN!
Your IP Address is .   And Location is
Your Internet Provider and Government can track your torrent Activity!  Hide your IP ADDRESS with a VPN!
We Strongly Recommend Using SpyOFF Torrent VPN to Anonymize your Torrenting. It's FREE For 15 Days!

Note :

Please Update (Trackers Info) Before Downloading Torrents to See Updated Seeders And Leechers for Batter Download Speed.

Trackers List

Tracker NameLast CheckStatusSeedersLeechers




Torrent File Content (3 files)


Jack Reacher 2012 CAMRip English
     Jack Reacher 2012 CAMRip English.mkv -
1.37 GB

     Torrent Downloaded From Digtorrent.org.txt -
346 bytes

     Torrent downloaded from souravfile torrents on BTScene.eu.txt -
69 bytes



Description



http://hostpicturefree.com/images/bannerlnl.gif


Cover:

http://ia.media-imdb.com/images/M/MV5BMTM1NjUxMDI3OV5BMl5BanBnXkFtZTcwNjg1ODM3OA@@._V1._SY317_CR3,0,214,317_.jpg


Release info:

[code]General
Format : Matroska
Format version : Version 2
File size : 1.37 GiB
Duration : 2h 4mn
Overall bit rate : 1 565 Kbps

Video
ID : 1
Format : MPEG-4 Visual
Format profile : Advanced [email protected]
Format settings, BVOP : Yes
Format settings, QPel : No
Format settings, GMC : No warppoints
Format settings, Matrix : Default (H.263)
Codec ID : V_MS/VFW/FOURCC / XVID
Codec ID/Hint : XviD
Duration : 2h 4mn
Bit rate : 1 406 Kbps
Width : 720 pixels
Height : 336 pixels
Display aspect ratio : 2.143
Frame rate mode : Constant
Frame rate : 29.970 fps
Color space : YUV
Chroma subsampling : 4:2:0
Bit depth : 8 bits
Scan type : Progressive
Compression mode : Lossy
Bits/(Pixel*Frame) : 0.194
Stream size : 1.23 GiB (90%)
Title : Jack Reacher 2012
Writing library : XviD 64
Language : English
Default : Yes
Forced : No

Audio
ID : 2
Format : MPEG Audio
Format version : Version 1
Format profile : Layer 3
Muxing mode : Header stripping
Codec ID : A_MPEG/L3
Codec ID/Hint : MP3
Duration : 2h 4mn
Bit rate mode : Constant
Bit rate : 128 Kbps
Channel(s) : 2 channels
Sampling rate : 48.0 KHz
Compression mode : Lossy
Stream size : 114 MiB (8%)
Title : Jack Reacher 2012
Writing library : LAME3.98.4
Language : English
Default : Yes
Forced : No



Source:
credit to original movie ripper OCW (Thanks)[/code]

IMDB Info:

[code]A homicide investigator digs deeper into a case involving a trained military sniper who shot five random victims.

Director: Christopher McQuarrie
Writers: Christopher McQuarrie (screenplay), Lee Child (book)
Stars: Tom Cruise, Rosamund Pike and Richard Jenkins

Genres: Action | Crime | Thriller[/code]

http://www.imdb.com/title/tt0790724/

Screen Shot:

http://hostpicturefree.com/images/vlcsnaeee.png

http://hostpicturefree.com/images/vlcsnaflf.png

http://hostpicturefree.com/images/vlcsnarer.png

http://hostpicturefree.com/images/vlcsnafdf.png

http://hostpicturefree.com/images/vlcsnabwb.png

http://hostpicturefree.com/images/vlcsnakwk.png

Related torrents

Torrent NameAddedSizeSeedLeechHealth
1 Year+ - in Movies722.8 MB10
1 Year+ - in Movies738.66 MB10
1 Year+ - in Movies746.27 MB10
1 Year+ - in Movies843.21 MB10
1 Year+ - in Movies818.23 MB10

Comments (0 Comments)




Please login or create a FREE account to post comments

Latest Searches

| no registration required | blues cowboys | master me daddy | Case 39 2009 dts | 21Sextury Kimber Delice | thick tits latina | Tom Clancys Splinter Cell Blacklist Deluxe Edition | karate kid 1080p 2010 | Private Specials 141 Hot Cooking RP | opencart 2 1 |