Quick Browse
Movies
TV shows
Music
Games
Applications
Anime
Other

Donate and Support

Friends
Torrents.me
Torrent Download
Free Movies
1337x
RARBG
Torrent Downloads

Verified torrent Jagir (1984) Hindi DvD RiP XviD [email protected]


    Seeders : 0      Leechers : 5

Warning! Do not Download Torrents Without a VPN!
Your IP Address is .   And Location is
Your Internet Provider and Government can track your torrent Activity!  Hide your IP ADDRESS with a VPN!
We Strongly Recommend Using SpyOFF Torrent VPN to Anonymize your Torrenting. It's FREE For 15 Days!

Note :

Please Update (Trackers Info) Before Downloading Torrents to See Updated Seeders And Leechers for Batter Download Speed.

Trackers List

Tracker NameLast CheckStatusSeedersLeechers




Torrent File Content (4 files)


Jagir [ 1984 ] DvD - RiP - XviD -{ XMR }
     Jagir 1984 DVDRip 2CD.avi -
1.36 GB

     2.JPG -
72.9 KB

     front.jpg -
65.03 KB

     1.JPG -
23.82 KB



Description



[color=red][font=Georgia]Ripper : Rahul
Complete name : Jagir [ 1984 ]
Format : AVI
Format/Info : Audio Video Interleave
File size : 1.36 GiB
Duration : 2h 46mn
Overall bit rate : 1 171 Kbps
Writing application : VirtualDubMod 1.5.10.2 (build 2540/release)
Writing library : VirtualDubMod build 2540/release

Video
ID : 0
Format : MPEG-4 Visual
Format profile : Advanced [email protected]
Format settings, BVOP : Yes
Format settings, QPel : No
Format settings, GMC : No warppoints
Format settings, Matrix : Default (H.263)
Muxing mode : Packed bitstream
Codec ID : XVID
Codec ID/Hint : XviD
Duration : 2h 46mn
Bit rate : 711 Kbps
Width : 640 pixels
Height : 480 pixels
Display aspect ratio : 4:3
Frame rate : 29.970 fps
Color space : YUV
Chroma subsampling : 4:2:0
Bit depth : 8 bits
Scan type : Progressive
Bits/(Pixel*Frame) : 0.077
Stream size : 846 MiB (61%)
Writing library : XviD 1.1.2 (UTC 2006-11-01)

Audio
ID : 1
Format : AC-3
Format/Info : Audio Coding 3
Codec ID : 2000
Duration : 2h 46mn
Bit rate mode : Constant
Bit rate : 448 Kbps
Channel(s) : 6 channels
Sampling rate : 48.0 KHz
Stream size : 533 MiB (38%)
Alignment : Aligned on interleaves
Interleave, duration : 33 ms (1.00 video frame)
Interleave, preload duration : 500 ms
[/font][/color]

http://img201.imageshack.us/img201/7703/2efp6dd.jpg

http://img521.imageshack.us/img521/3987/2vakvop.jpg

http://img178.imageshack.us/img178/1143/6z1qu8.jpg

http://img713.imageshack.us/img713/8776/15cm35k.jpg

http://img375.imageshack.us/img375/1751/29cqlo2.jpg

http://img201.imageshack.us/img201/8499/34e80li.jpg

http://img801.imageshack.us/img801/7192/zjxnxu.jpg



[url=http://www.sendspace.com/file/7wt213][size=6][color=green][font=Georgia]
Sample
[/font][/color][/size][/url]

Related torrents

Torrent NameAddedSizeSeedLeechHealth
1 Comments
1 Good
Verified torrent
1 Year+ - in Movies927.63 MB00
1 Comments
1 Good
Verified torrent
1 Year+ - in Movies1.37 GB34
Verified torrent
1 Year+ - in Movies1.09 GB9465
Verified torrent
1 Year+ - in Movies1.39 GB00
Verified torrent
1 Year+ - in Movies1.37 GB10

Comments (0 Comments)




Please login or create a FREE account to post comments

Latest Searches

| ailens 3 | ultimate guide money | fall out boy courtney love rat a tat | martin season dvdrip xvid | 2015 best in porn | ak 2017 320 | assassin s creed pirates v2 9 1 | fox mcdonald fluid mechanics solution manual | hindi t serial | Do you love me Jay |