Quick Browse
Movies
TV shows
Music
Games
Applications
Anime
Other
Facebook
Advertising

Friends
Torrent Download
Movie4u
1337x.to
Torrent Downloads




Verified torrent Jail 2009 Hindi Sainya Ve Blu-Ray Rip 720p x264 AC3 [email protected]


    Seeders : 4      Leechers : 1

Trackers List

Tracker NameLast CheckStatusSeedersLeechers




Torrent File Content (1 file)


     Jail (2009) - Sainya Ve - Blu-Ray - Rip - 720p - x264 - AC3 - DrC.mkv -
112.69 MB



Description



[font=Georgia]Source...........................: Blu Ray DDR
Ripper...........................: DrC

General
Format : Matroska
File size : 113 MiB
Duration : 3mn 5s
Overall bit rate : 5 092 Kbps
Encoded date : UTC 2010-09-02 14:12:10
Writing application : mkvmerge v2.9.8 ('C'est le bon') built on Aug 13 2009 12:49:06
Writing library : libebml v0.7.7 + libmatroska v0.8.1

Video
ID : 1
Format : AVC
Format/Info : Advanced Video Codec
Format profile : [email protected]
Format settings, CABAC : Yes
Format settings, ReFrames : 3 frames
Muxing mode : Container [email protected]
Codec ID : V_MPEG4/ISO/AVC
Duration : 3mn 5s
Bit rate : 4 351 Kbps
Width : 1 280 pixels
Height : 544 pixels
Display aspect ratio : 2.35:1
Frame rate : 24.000 fps
Color space : YUV
Chroma subsampling : 4:2:0
Bit depth : 8 bits
Scan type : Progressive
Bits/(Pixel*Frame) : 0.260
Stream size : 96.3 MiB (85%)
Language : English
Color primaries : BT.709-5, BT.1361, IEC 61966-2-4, SMPTE RP177
Transfer characteristics : BT.709-5, BT.1361
Matrix coefficients : BT.709-5, BT.1361, IEC 61966-2-4 709, SMPTE RP177

Audio
ID : 2
Format : AC-3
Format/Info : Audio Coding 3
Mode extension : CM (complete main)
Codec ID : A_AC3
Duration : 3mn 5s
Bit rate mode : Constant
Bit rate : 640 Kbps
Channel(s) : 6 channels
Channel positions : Front: L C R, Side: L R, LFE
Sampling rate : 48.0 KHz
Bit depth : 16 bits
Video delay : 28ms
Stream size : 14.2 MiB (13%)

Ripper Notes: Enjoy da DrC Rip...
[/font]

http://img530.imageshack.us/img530/5306/9y75hh.jpg

http://img337.imageshack.us/img337/675/aidjsl.jpg

http://img839.imageshack.us/img839/4327/ipnb87.jpg

http://img268.imageshack.us/img268/423/iqj9b0.jpg

http://img443.imageshack.us/img443/3179/lx03r6.jpg


Related torrents

Torrent NameAddedSizeSeedLeechHealth
1 Year+ - in Movies4.38 GB00
1 Year+ - in Movies4.36 GB00
1 Year+ - in Music901.39 MB01
Verified torrent
1 Year+ - in Music2.33 GB00
Verified torrent
1 Year+ - in Movies487.21 MB01

Comments (0 Comments)




Please login or create a FREE account to post comments

Latest Searches

| halt and catch fire season | office 2016 torrent | batman digital 2014 2015 | 03 | Kelly Rowland future | white girl 2016 x265 | Impaled Nazarene Road To The | release me esther phillips | just mat | Hot Horny In Miami 2 |