Quick Browse
Movies
TV shows
Music
Games
Applications
Anime
Other
Facebook
Advertising

Friends
Torrent Download
Movie4u
1337x.to
Torrent Downloads




James Horner - Der Name Der Rose (The Name Of The Rose) [EAC-FLAC] [RePoPo]


    Seeders : 11      Leechers : 5

Trackers List

Tracker NameLast CheckStatusSeedersLeechers




Torrent File Content (21 files)


James Horner - Der Name Der Rose (The Name Of The Rose) [EAC-FLAC] [RePoPo]
    COVERS
          Back.jpg -
474.08 KB

          CD.jpg -
325.03 KB

          Front-2.jpg -
363.47 KB

          Front.jpg -
421.1 KB

     01.- James Horner - Main titles.flac -
14.34 MB

     02.- James Horner - Beata viscera.flac -
10.8 MB

     03.- James Horner - First recongnition.flac -
13.8 MB

     04.- James Horner - The lesson.flac -
20.07 MB

     05.- James Horner - Kyrie.flac -
12.18 MB

     06.- James Horner - The scriptorium.flac -
16.85 MB

     07.- James Horner - Veni sancte spiritus.flac -
15.79 MB

     08.- James Horner - The confession.flac -
14.68 MB

     09.- James Horner - Flashbacks.flac -
9.73 MB

     10.- James Horner - The discovery.flac -
12.32 MB

     11.- James Horner - Betrayed.flac -
13.8 MB

     12.- James Horner - Epilogue.flac -
29.16 MB

     13.- James Horner - End titles.flac -
15.33 MB

     James Horner - Der Name Der Rose (The Name Of The Rose) [EAC-FLAC] [RePoPo].txt -
3.1 KB

     James Horner - The name of the rose.log -
5.74 KB

     James Horner - The name of the rose.m3u -
1.02 KB

     Torrent downloaded from Demonoid.com.txt -
47 bytes



Description



*******************************************************************************
            James Horner - Der Name Der Rose (The Name Of The Rose)
*******************************************************************************

Tracklist

01. Main titles    [0:03:01.50]
02. Beata viscera    [0:02:21.47]
03. First recongnition    [0:02:31.55]
04. The lesson    [0:04:21.20]
05. Kyrie    [0:02:24.20]
06. The scriptorium    [0:03:57.30]
07. Veni sancte spiritus    [0:03:15.55]
08. The confession    [0:03:12.48]
09. Flashbacks    [0:02:06.00]
10. The discovery    [0:02:28.67]
11. Betrayed     [0:02:58.18]
12. Epilogue    [0:06:14.70]
13. End titles    [0:03:12.52]

-------------------------------------------------------------------------------
                                 Release Notes
-------------------------------------------------------------------------------
Exact Audio Copy V0.99 prebeta 4 from 23. January 2008

EAC extraction logfile from 28. April 2009, 15:33

James Horner / The name of the rose

Used drive  : HL-DT-STDVD-RAM GSA-H55N   Adapter: 3  ID: 1

Read mode               : Secure
Utilize accurate stream : Yes
Defeat audio cache      : No
Make use of C2 pointers : No

Read offset correction                      : 102
Overread into Lead-In and Lead-Out          : No
Fill up missing offset samples with silence : Yes
Delete leading and trailing silent blocks   : No
Null samples used in CRC calculations       : No
Used interface                              : Native Win32 interface for Win NT 
& 2000
Gap handling                                : Not detected, thus appended to 
previous track

Used output format              : User Defined Encoder
Selected bitrate                : 1024 kBit/s
Quality                         : High
Add ID3 tag                     : Yes
Command line compressor         : F:Archivos de programaExact Audio 
CopyFLACFLAC.EXE
Additional command line options : -6 -V -T "ARTIST=%a" -T "TITLE=%t" -T 
"ALBUM=%g" -T "DATE=%y" -T "TRACKNUMBER=%n" -T "GENRE=%m" -T
"COMMENT=%e" %s -o 
%d


TOC of the extracted CD

     Track |   Start  |  Length  | Start sector | End sector 
    ---------------------------------------------------------
        1  |  0:00.33 |  3:01.50 |        33    |    13657   
        2  |  3:02.08 |  2:21.47 |     13658    |    24279   
        3  |  5:23.55 |  2:31.55 |     24280    |    35659   
        4  |  7:55.35 |  4:21.20 |     35660    |    55254   
        5  | 12:16.55 |  2:24.20 |     55255    |    66074   
        6  | 14:41.00 |  3:57.30 |     66075    |    83879   
        7  | 18:38.30 |  3:15.55 |     83880    |    98559   
        8  | 21:54.10 |  3:12.48 |     98560    |   113007   
        9  | 25:06.58 |  2:06.00 |    113008    |   122457   
       10  | 27:12.58 |  2:28.67 |    122458    |   133624   
       11  | 29:41.50 |  2:58.18 |    133625    |   146992   
       12  | 32:39.68 |  6:14.70 |    146993    |   175112   
       13  | 38:54.63 |  3:12.52 |    175113    |   189564   



-------------------------------------------------------------------------------

Related torrents

Torrent NameAddedSizeSeedLeechHealth
1 Year+ - in Movies7.77 GB213
1 Year+ - in Movies3.33 GB00
1 Year+ - in Music527.69 MB145
1 Year+ - in Music166.23 MB5834
18 days ago - in Movies3.07 GB00

Comments (0 Comments)




Please login or create a FREE account to post comments

Latest Searches

| x art | yung sexy lady | deep inside club | AUDITORIO | Sanam Puri Collection Hindi Mp3 Songs VBR kajal | jack frost 1 1997 | Games Of Perversion 4 Psycho Sex split scenes | constantine dvdrip latino | Billy Roses Jumbo 1962 | weekend r n b |