Quick Browse
Movies
TV shows
Music
Games
Applications
Anime
Other
Facebook
Advertising

Friends
Torrent Download
Movie4u
1337x.to
Torrent Downloads




James Horner - Star Trek II The Wrath Of Khan [EAC-FLAC] [RePoPo]


    Seeders : 1      Leechers : 48

Trackers List

Tracker NameLast CheckStatusSeedersLeechers




Torrent File Content (16 files)


James Horner - Star Trek II The Wrath Of Khan [EAC-FLAC] [RePoPo]
    COVERS
          Back.jpg -
447.85 KB

          CD.jpg -
195.06 KB

          Front.jpg -
283.03 KB

     01.- James Horner - Main Title.flac -
16.22 MB

     02.- James Horner - Surprise Attack.flac -
27.42 MB

     03.- James Horner - Spock.flac -
5.54 MB

     04.- James Horner - Kirk's Explosive Reply.flac -
18.86 MB

     05.- James Horner - Khan's Pets.flac -
17.61 MB

     06.- James Horner - Enterprise Clears Moorings.flac -
19.3 MB

     07.- James Horner - Battle in the Mutara Nebula.flac -
42.4 MB

     08.- James Horner - Genesis Countdown.flac -
33.77 MB

     09.- James Horner - Epilogue , End Title.flac -
46.07 MB

     James Horner - Star Trek II The Wrath of Khan.log -
5.25 KB

     James Horner - Star Trek II The Wrath of Khan.m3u -
818 bytes

     Star Trek II The Wrath of Khan.txt -
3.45 KB

     Torrent downloaded from Demonoid.com.txt -
47 bytes



Description



*******************************************************************************
                 James Horner - Star Trek II The Wrath Of Khan
*******************************************************************************


01. Main Title    [0:03:08.67]
02. Surprise Attack    [0:05:08.15]
03. Spock    [0:01:13.23]
04. Kirk's Explosive Reply    [0:04:02.62]
05. Khan's Pets    [0:04:19.48]
06. Enterprise Clears Moorings    [0:03:36.07]
07. Battle in the Mutara Nebula    [0:08:05.33]
08. Genesis Countdown    [0:06:36.45]
09. Epilogue / End Title    [0:08:43.42]


-------------------------------------------------------------------------------

Review	by Jason Ankeny

Taking the musical reins from the legendary Jerry Goldsmith, James Horner 
boarded the Starship Enterprise to deliver what would prove to be his 
breakthrough score. A surprisingly dark, emotional effort some distance removed 
from Goldsmith's utopian fanfare, Star Trek II: The Wrath of Khan was 
instrumental in steering the franchise into more complex territory. Horner's 
lucid melodies and sweeping orchestral arrangements possess a sense of genuine 
danger and malice long absent from Star Trek's musical backdrop, climaxing in 
the profoundly emotional catharsis of "Spock." His efforts lend Trek creator 
Gene Roddenberry's vision a newfound gravitas. 

-------------------------------------------------------------------------------

Exact Audio Copy V0.99 prebeta 4 from 23. January 2008

EAC extraction logfile from 29. April 2009, 2:18

James Horner / Star Trek II : The Wrath of Khan

Used drive  : HL-DT-STDVD-RAM GSA-H55N   Adapter: 3  ID: 1

Read mode               : Secure
Utilize accurate stream : Yes
Defeat audio cache      : No
Make use of C2 pointers : No

Read offset correction                      : 102
Overread into Lead-In and Lead-Out          : No
Fill up missing offset samples with silence : Yes
Delete leading and trailing silent blocks   : No
Null samples used in CRC calculations       : No
Used interface                              : Native Win32 interface for Win NT 
& 2000
Gap handling                                : Appended to previous track

Used output format              : User Defined Encoder
Selected bitrate                : 1024 kBit/s
Quality                         : High
Add ID3 tag                     : Yes
Command line compressor         : F:Archivos de programaExact Audio 
CopyFLACFLAC.EXE
Additional command line options : -6 -V -T "ARTIST=%a" -T "TITLE=%t" -T 
"ALBUM=%g" -T "DATE=%y" -T "TRACKNUMBER=%n" -T "GENRE=%m" -T
"COMMENT=%e" %s -o 
%d


TOC of the extracted CD

     Track |   Start  |  Length  | Start sector | End sector 
    ---------------------------------------------------------
        1  |  0:00.00 |  3:08.67 |         0    |    14166   
        2  |  3:08.67 |  5:08.15 |     14167    |    37281   
        3  |  8:17.07 |  1:13.23 |     37282    |    42779   
        4  |  9:30.30 |  4:02.62 |     42780    |    60991   
        5  | 13:33.17 |  4:19.48 |     60992    |    80464   
        6  | 17:52.65 |  3:36.07 |     80465    |    96671   
        7  | 21:28.72 |  8:05.33 |     96672    |   133079   
        8  | 29:34.30 |  6:36.45 |    133080    |   162824   
        9  | 36:11.00 |  8:43.42 |    162825    |   202091   

-------------------------------------------------------------------------------
-------------------------------------------------------------------------------

Related torrents

Torrent NameAddedSizeSeedLeechHealth
3 months ago - in Movies3.08 GB72
5 months ago - in Movies847.96 MB00
5 months ago - in Movies1.66 GB00
Verified torrent
1 Year+ - in Movies842.31 MB119
1 Year+ - in Music238.6 MB00

Comments (0 Comments)




Please login or create a FREE account to post comments

Latest Searches

| Islands Apart | chunky chicks 7 | all xmas songs | ink | Lol Wayne Charlie puth | mos def remix | marta croft spunk | Danger Close 2016 | People Australia 21 November 5 December 2016 | Drug Discovery Practices Processes and Perspectives |