Quick Browse
Movies
TV shows
Music
Games
Applications
Anime
Other
Facebook
Friends
Torrent Download
Movie4u
1337x.to
Torrent Downloads

Verified torrent Jazmine Sullivan ft Missy Elliott - Holding You Down (Goin In Circles) [KingPinVideos]


    Seeders : 60      Leechers : 2


Trackers List

Tracker NameLast CheckStatusSeedersLeechers




Torrent File Content (4 files)


Jazmine Sullivan ft Missy Elliott - Holding You Down (Goin In Circles) [KingPinVideos]
     Jazmine Sullivan ft Missy Elliott - Holding You Down (Goin In Circles) [KingPinVideos].mpg -
76.31 MB

     Jazmine Sullivan ft Missy Elliott - Holding You Down (Goin In Circles) [KingPinVideos].nfo -
2.1 KB

     Jazmine Sullivan ft Missy Elliott - Holding You Down (Goin In Circles) [KingPinVideos].txt -
1.67 KB

     Torrent downloaded from Demonoid.com.txt -
47 bytes



Description



http://a.imageshack.us/img683/8066/jazmanhold.png


http://a.imageshack.us/img811/9747/jazmanhold2.png


[code]General
Complete name : Jazmine Sullivan ft Missy Elliott - Holding You Down (Goin In Circles) [KingPinVideos].mpg
Format : MPEG-PS
File size : 76.3 MiB
Duration : 3mn 44s
Overall bit rate : 2 856 Kbps
Writing library : encoded by TMPGEnc 4.0 XPress Version. 4.7.4.299

Video
ID : 224 (0xE0)
Format : MPEG Video
Format version : Version 1
Format settings, BVOP : Yes
Format settings, Matrix : Default
Duration : 3mn 44s
Bit rate mode : Constant
Bit rate : 2 615 Kbps
Nominal bit rate : 2 700 Kbps
Width : 384 pixels
Height : 208 pixels
Display aspect ratio : 16:9
Frame rate : 29.970 fps
Resolution : 8 bits
Scan type : Progressive
Bits/(Pixel*Frame) : 1.092
Stream size : 69.9 MiB (92%)
Writing library : TMPGEnc XPress 4.7.4.299

Audio
ID : 192 (0xC0)
Format : MPEG Audio
Format version : Version 1
Format profile : Layer 2
Duration : 3mn 44s
Bit rate mode : Constant
Bit rate : 128 Kbps
Channel(s) : 2 channels
Sampling rate : 48.0 KHz
Stream size : 3.42 MiB (4%)[/code]

Related torrents

Torrent NameAddedSizeSeedLeechHealth
1 Year+ - in Music8.33 MB214
1 Year+ - in Other1.18 MB03
10 months ago - in Other1.18 MB00
1 Year+ - in Other6.52 MB00
1 Year+ - in Music6.3 MB00

Comments (0 Comments)




Please login or create a FREE account to post comments

Latest Searches

| Cream Live at Whiskey A Go Go 2 CD 1967 ak320 | boss baby 720p hd ts x264 ac3 cpg | Dragon ball super E 16 | Rocco Siffredi Mimi B Rocco s Intimate Castings | Back To The Future 1 2 3 Trilogy | Management Decision Systems | Jennifer Crusie Bet Me PDF | bootland install windows with usb | Rocco Siffredi Mimi B Rocco s Intimate Castings 7 | the 4 minute mile |