Quick Browse
Movies
TV shows
Music
Games
Applications
Anime
Other
Facebook
Advertising

Friends
Torrent Download
Movie4u
1337x.to
Torrent Downloads




Verified torrent Jeff Who Lives at Home 2012 BRRip XviD AC3-FTW


    Seeders : 0      Leechers : 0
Hash :43039EDAD3FD76C471893C46DE2CDE65AF208E28
Added :1 Year+ by robyrsVerified torrent uploader in Movies
Size :763.45 MB
Stream :WATCH ONLINE @ Movie4u


Jeff Who Lives at Home 2012 BRRip XviD AC3-FTW
Free and Fast Download with Usenet 300GB+ free







Trackers List

Tracker NameLast CheckStatusSeedersLeechers




Torrent File Content (8 files)


Jeff Who Lives at Home 2012 BRRip XviD AC3-FTW
     Jeff Who Lives at Home 2012 BRRip XviD AC3-FTW.avi -
755.11 MB

     ENG.sub -
8.34 MB

     darkcore.me.txt -
834 bytes

     HD File info.txt -
727 bytes

     sceneunderground.org.txt -
77 bytes

     Torrent downloaded from AhaShare.com.txt -
59 bytes

     Torrent downloaded from Suprnova.me.txt -
42 bytes

     Torrent downloaded from Rarbg.com.txt -
33 bytes



Description



Jeff Who Lives at Home 2012 BRRip XviD AC3-FTW

Dispatched from his basement room on an errand for his mother, slacker Jeff might discover his destiny

(finally) when he spends the day with his brother as he tracks his possibly adulterous wife.

http://www.imdb.com/title/tt1588334/

http://shareimage.org/images/gzaxngvzm3qgnshk3sfo.jpg


http://shareimage.org/images/7868gjoqxdcku3dmxt.jpg


http://shareimage.org/images/1enkz00b1rz9q0lbf.jpg


http://shareimage.org/images/56uq8clihsmdr1uxeltz.jpg


Source: [legendET]....THX

Format : AVI
Format/Info : Audio Video Interleave
Duration : 1h 35mn
Overall bit rate : 1 694 Kbps
Writing application : Lavf51.12.1
Writing library : VirtualDub build 33848/release

Video
ID : 0
Format : MPEG-4 Visual
Format profile : Advanced [email protected]
Format settings, BVOP : Yes
Format settings, QPel : No
Format settings, GMC : No warppoints
Format settings, Matrix : Default (H.263)
Muxing mode : Packed bitstream
Codec ID : XVID
Codec ID/Hint : XviD
Duration : 1h 35mn
Bit rate : 1 492 Kbps
Width : 720 pixels
Height : 304 pixels
Display aspect ratio : 2.35:1
Frame rate : 25.000 fps
Color space : YUV
Chroma subsampling : 4:2:0
Bit depth : 8 bits
Scan type : Progressive
Bits/(Pixel*Frame) : 0.273
Stream size : 966 GiB (88%)
Writing library : XviD 1.2.1 (UTC 2008-12-04)

Audio
ID : 1
Format : MPEG Audio
Format version : Version 1
Format profile : Layer 3
Mode : Joint stereo
Mode extension : MS Stereo
Codec ID : 55
Codec ID/Hint : MP3
Duration : 1h 35mn
Bit rate mode : Constant
Bit rate : 192 Kbps
Channel(s) : 2 channels
Stream size : 161 MiB (11%)
Alignment : Split accross interleaves
Interleave, duration : 40 ms (1.00 video frame)
Interleave, preload duration : 500 ms
Writing library : LAME3.98.2

Audio: untouched

Workdone:
Well getting pm's like crazy...some believe it and some dont, but yes we removed the watermark, but only 90%

of it. Then we had a choice to blur it or not for the finishing touch. If we didnt litely blur the area you

would be able to see the outline of the watermark, so we litely blur it. Last 2 screenshots will show

examples. After that was all done, it was a pain to get this file saved in this new program and we had to

read up on it. After that was done we insert it into vdub and did our usual, levels, brightness,contrast,and

litely ran a smoother.

ENJOY THIS FINE RELEASE :)

Related torrents

Torrent NameAddedSizeSeedLeechHealth
1 Year+ - in Movies645.43 MB01
1 Year+ - in Movies656.13 MB10
1 Year+ - in Movies700.95 MB16,83320,397
1 Year+ - in Movies694.95 MB10
1 Year+ - in Movies690 MB10

Comments (0 Comments)




Please login or create a FREE account to post comments

Latest Searches

| johnny cash flac unearthed | IOS 9 3 5 Bypass Icloud Activation | R Kelly marry p | formula 1 abu dhabi 2016 | shiranai loveoshiete love | party party sausage | Ryders vol 1 | Mark Dumont | Gilmore girls s year in the life | exploited s amy |