Quick Browse
Movies
TV shows
Music
Games
Applications
Anime
Other
Facebook
Advertising

Friends
Torrent Download
Movie4u
1337x.to
Torrent Downloads




Verified torrent Jennifers Body[2009]DvDrip-LW


    Seeders : 165      Leechers : 32
Hash :3C56A2627FF5EC5F4A8ADEFB2D668B4E789A6CA5
Added :1 Year+ by XoLWoXVerified torrent uploader in Movies
Size :705.09 MB
Stream :WATCH ONLINE @ Movie4u


Jennifers Body[2009]DvDrip-LW
Free and Fast Download with Usenet 300GB+ free







Trackers List

Tracker NameLast CheckStatusSeedersLeechers




Torrent File Content (7 files)


Jennifers Body[2009]DvDrip-LW
    Cover
          JB-Cover.jpg -
75.16 KB

    Info
          Movie Info.nfo -
14.66 KB

          Movie Info.txt -
3.12 KB

    Movie
          Jennifers Body[2009]DvDrip-LW.avi -
705 MB

    Trackers
          Torrent downloaded from AhaShare.com.txt -
59 bytes

          Torrent downloaded from Demonoid.com.txt -
47 bytes

          tracked_by_h33t_com.txt -
23 bytes



Description



http://i26.tinypic.com/35lvr55.jpg

[color=red]-------------------------------------------------[/color]
http://i48.tinypic.com/k13v48.jpg

[color=red]-------------------------------------------------[/color]
File Name : Jennifers Body[2009]DvDrip-LW
Type : Movie
Format : AVI
File Size : 704 MB
Duration : 01:42:21
Language : English
Source : DvD
Subtitles : None
Genre : Comedy | Fantasy | Horror
IMDB Link : http://www.imdb.com/title/tt1131734/
IMDB Rating : 5.3/10
IMDB Votes : 22,817 Votes
[color=red]-------------------------------------------------[/color]
http://i46.tinypic.com/5n13z8.jpg

[color=red]-------------------------------------------------[/color]
Format : MPEG-4 Visual
Format profile : Advanced [email protected]
Format settings, BVOP : Yes
Format settings, QPel : No
Format settings, GMC : No warppoints
Format settings, Matrix : Custom
Codec ID : XVID
Codec ID/Hint : XviD
Duration : 1h 42mn
Bit rate : 844 Kbps
Width : 720 pixels
Height : 384 pixels
Display aspect ratio : 1.875
Frame rate : 23.976 fps
Resolution : 8 bits
Colorimetry : 4:2:0
Scan type : Progressive
Bits/(Pixel*Frame) : 0.127
Stream size : 618 MiB (88%)
Writing library : XviD 1.2.1
[color=red]-------------------------------------------------[/color]
http://i45.tinypic.com/14lof2g.jpg

[color=red]-------------------------------------------------[/color]
Format : MPEG Audio
Format version : Version 1
Format profile : Layer 3
Mode : Joint stereo / MS Stereo
Codec ID : 55
Codec ID/Hint : MP3
Duration : 1h 42mn
Bit rate mode : Constant
Bit rate : 112 Kbps
Channel(s) : 2 channels
Sampling rate : 44.1 KHz
Stream size : 82.0 MiB (12%)
Alignment : Split accross interleaves
Interleave, duration : 83 ms (2.00 video frames)
Interleave, preload duration : 500 ms
Writing library : LAME3.98
[color=red]-------------------------------------------------[/color]
http://i46.tinypic.com/16ih2fo.jpg

[color=red]-------------------------------------------------[/color]
After a supernatural romp with a satanic emo band,
hot cheerleader Jennifer (Megan Fox) is transformed
into a demon with an insatiable appetite for high
school boys. Now, it's up to Jennifer's BFF, Needy
(Amanda Seyfried), to protect the guys from the
bloodthirsty man-eater. Penned by Diablo Cody (Juno),
this one-of-a-kind horror comedy co-stars Adam Brody
as the devil-worshipping band's lead singer.

Starring: Megan Fox, Amanda Seyfried

Director: Karyn Kusama
[color=red]-------------------------------------------------[/color]

http://i49.tinypic.com/2vi137p.jpg

http://i25.tinypic.com/2147aee.jpg

http://i30.tinypic.com/2vhxdp5.jpg

http://i32.tinypic.com/iq94k5.jpg

http://i27.tinypic.com/2qw38ud.jpg

http://i28.tinypic.com/30m9zpl.jpg

Related torrents

Torrent NameAddedSizeSeedLeechHealth
1 Year+ - in Movies1.1 GB18
4 months ago - in Movies1.41 GB00
7 months ago - in Movies1.36 GB00
7 months ago - in Movies1.3 GB00
7 months ago - in Other2.05 GB00

Comments (0 Comments)




Please login or create a FREE account to post comments

Latest Searches

| Young Thug Clean | a hunter s story | Medieval II Total War | THE GRAND TOUR 3 | The Hobbit The Desolation of Smaug | northlanders saga | Ordinary Lies S01E05 HDTV x264 ORGANiC | TS Factor rococo | south park season 20 x265 | Genius 2016 1080p SiNNERS |