Quick Browse
Movies
TV shows
Music
Games
Applications
Anime
Other

Advertising

Friends
Torrents.me
Torrent Download
Free Movies
1337x
RARBG
Torrent Downloads

Verified torrent Jeremih ft Ludacris - I Like [KingPinVideos]


    Seeders : 1      Leechers : 0

Hash :A6FB968D4C52232A35C7F9C969A57AD60E834EF3
Added :1 Year+ by KingPinVerified torrent uploader in Music - Music Videos
Size :75.25 MB
Stream :Watch Online Full Movie @ Movie4u
Share :


Jeremih ft Ludacris - I Like [KingPinVideos]
Download Direct And Anonymously







Warning! Do not Download Torrents Without a VPN!
Your IP Address is .   And Location is
Your Internet Provider and Government can track your torrent Activity!  Hide your IP ADDRESS with a VPN!
We Strongly Recommend Using SpyOFF Torrent VPN to Anonymize your Torrenting. It's FREE for 15 Days!

Note :

Please Update (Trackers Info) Before Downloading Torrents to See Updated Seeders And Leechers for Batter Download Speed.

Trackers List

Tracker NameLast CheckStatusSeedersLeechers




Torrent File Content (4 files)


Jeremih ft Ludacris - I Like [KingPinVideos]
     Jeremih ft Ludacris - I Like [KingPinVideos].mpg -
75.24 MB

     Jeremih ft Ludacris - I Like [KingPinVideos].nfo -
2.04 KB

     Jeremih ft Ludacris - I Like [KingPinVideos].txt -
1.63 KB

     Torrent downloaded from Demonoid.com.txt -
47 bytes



Description



http://a.imageshack.us/img651/9599/jeremihlike.png


http://a.imageshack.us/img23/4275/jeremihlike2.png



[code]General
Complete name : Jeremih ft Ludacris - I Like [KingPinVideos].mpg
Format : MPEG-PS
File size : 75.2 MiB
Duration : 3mn 40s
Overall bit rate : 2 857 Kbps
Writing library : encoded by TMPGEnc 4.0 XPress Version. 4.7.4.299

Video
ID : 224 (0xE0)
Format : MPEG Video
Format version : Version 1
Format settings, BVOP : Yes
Format settings, Matrix : Default
Duration : 3mn 40s
Bit rate mode : Constant
Bit rate : 2 616 Kbps
Nominal bit rate : 2 700 Kbps
Width : 384 pixels
Height : 208 pixels
Display aspect ratio : 16:9
Frame rate : 29.970 fps
Resolution : 8 bits
Scan type : Progressive
Bits/(Pixel*Frame) : 1.093
Stream size : 68.9 MiB (92%)
Writing library : TMPGEnc XPress 4.7.4.299

Audio
ID : 192 (0xC0)
Format : MPEG Audio
Format version : Version 1
Format profile : Layer 2
Duration : 3mn 40s
Bit rate mode : Constant
Bit rate : 128 Kbps
Channel(s) : 2 channels
Sampling rate : 48.0 KHz
Stream size : 3.37 MiB (4%)[/code]

Make Sure To Check Us Out On Our Site For More Brand New Videos

Related torrents

Torrent NameAddedSizeSeedLeechHealth
4 months ago - in Other3.47 MB00
1 Year+ - in Music5.88 MB00
3 months ago - in Music6.52 MB00
3 months ago - in Other220.65 MB00
5 months ago - in Other3.62 MB00

Note :

Feel free to post any comments about this torrent, including links to Subtitle, samples, screenshots, or any other relevant information. Please Dont Download anything from Comments, And Dont Post Links to Streaming Sites like Fmovies, Xmovies8, 123Movies, GoMovies, CMovieshd, Solarmovie, Watchfree, Putlockers, GoStream, m4ufree etc.

Comments (0 Comments)




Please login or create a FREE account to post comments

Latest Searches

| the new kids on the block I like the remix | greys s13e20 lol ettv | K dual 2 | poison ivy | geostorm ift | jack reacher 2012 1080p dts | l chapo 2 temporada | greys s13e19 lol ettv | mysteries of the bible sodom and gomorrah | l a vibes abstract |