Quick Browse
Movies
TV shows
Music
Games
Applications
Anime
Other
Facebook
Friends
Torrent Download
Movie4u
1337x.to
Torrent Downloads

Verified torrent Jeremih ft Ludacris - I Like [KingPinVideos]


    Seeders : 1      Leechers : 0
Hash :A6FB968D4C52232A35C7F9C969A57AD60E834EF3
Added :1 Year+ by KingPinVerified torrent uploader in Music - Music Videos
Size :75.25 MB
Stream :WATCH ONLINE @ Movie4u


Jeremih ft Ludacris - I Like [KingPinVideos]
Anonymous and Direct Download 300GB+ free








Trackers List

Tracker NameLast CheckStatusSeedersLeechers




Torrent File Content (4 files)


Jeremih ft Ludacris - I Like [KingPinVideos]
     Jeremih ft Ludacris - I Like [KingPinVideos].mpg -
75.24 MB

     Jeremih ft Ludacris - I Like [KingPinVideos].nfo -
2.04 KB

     Jeremih ft Ludacris - I Like [KingPinVideos].txt -
1.63 KB

     Torrent downloaded from Demonoid.com.txt -
47 bytes



Description



http://a.imageshack.us/img651/9599/jeremihlike.png


http://a.imageshack.us/img23/4275/jeremihlike2.png



[code]General
Complete name : Jeremih ft Ludacris - I Like [KingPinVideos].mpg
Format : MPEG-PS
File size : 75.2 MiB
Duration : 3mn 40s
Overall bit rate : 2 857 Kbps
Writing library : encoded by TMPGEnc 4.0 XPress Version. 4.7.4.299

Video
ID : 224 (0xE0)
Format : MPEG Video
Format version : Version 1
Format settings, BVOP : Yes
Format settings, Matrix : Default
Duration : 3mn 40s
Bit rate mode : Constant
Bit rate : 2 616 Kbps
Nominal bit rate : 2 700 Kbps
Width : 384 pixels
Height : 208 pixels
Display aspect ratio : 16:9
Frame rate : 29.970 fps
Resolution : 8 bits
Scan type : Progressive
Bits/(Pixel*Frame) : 1.093
Stream size : 68.9 MiB (92%)
Writing library : TMPGEnc XPress 4.7.4.299

Audio
ID : 192 (0xC0)
Format : MPEG Audio
Format version : Version 1
Format profile : Layer 2
Duration : 3mn 40s
Bit rate mode : Constant
Bit rate : 128 Kbps
Channel(s) : 2 channels
Sampling rate : 48.0 KHz
Stream size : 3.37 MiB (4%)[/code]

Make Sure To Check Us Out On Our Site For More Brand New Videos

Related torrents

Torrent NameAddedSizeSeedLeechHealth
8 months ago - in Music5.88 MB00
Verified torrent
1 Year+ - in Music89.6 MB213
1 Year+ - in Other4.22 MB13
1 Year+ - in Other9.68 MB10
1 Year+ - in Other3.69 MB10

Comments (0 Comments)




Please login or create a FREE account to post comments

Latest Searches

| Kitchen Nightmares US S06E14 | half moon run sun leads on me | Kitchen Nightmares US S06E13 | BrownBunnies Porsha Carrera mp4 | Kitchen Nightmares US S06E12 | Pocket Tanks Deluxe EC | The Mission Uk Greatest Hits | Kitchen Nightmares US S06E11 | Cum Deep In Me 2017 WEB DL SPLIT SCENES | 2d 3d image |