Quick Browse
Movies
TV shows
Music
Games
Applications
Anime
Other
Facebook
Advertising

Friends
Torrent Download
Movie4u
1337x.to
Torrent Downloads




Jim Jones - Na Na Nana Na Na {XVID} [Solly4Life]


    Seeders : 4      Leechers : 1
Hash :110AA70AF596E4C9D62D8B910216411A6087307D
Added :1 Year+ in Music - Music
Size :70.78 MB
Stream :WATCH ONLINE @ Movie4u


Jim Jones - Na Na Nana Na Na {XVID} [Solly4Life]
Free and Fast Download with Usenet 300GB+ free







Trackers List

Tracker NameLast CheckStatusSeedersLeechers




Torrent File Content (1 file)


     Jim Jones - Na Na Nana Na Na {XVID} [Solly4Life].rar -
70.78 MB



Description



General
Complete name : Jim Jones - Na Na Nana Na Na {XVID} [Solly4Life].avi
Format : AVI
Format/Info : Audio Video Interleave
File size : 72.6 MiB
Duration : 4mn 8s
Overall bit rate : 2 453 Kbps
Writing library : Boilsoft Joiner build 2411/release

Video
Format : MPEG-4 Visual
Format profile : Streaming [email protected]
Format settings, BVOP : Yes
Format settings, QPel : No
Format settings, GMC : No warppoints
Format settings, Matrix : Default (H.263)
Muxing mode : Packed bitstream
Codec ID : XVID
Codec ID/Hint : XviD
Duration : 4mn 8s
Bit rate : 2 252 Kbps
Width : 640 pixels
Height : 480 pixels
Display aspect ratio : 4/3
Frame rate : 25.000 fps
Resolution : 24 bits
Colorimetry : 4:2:0
Scan type : Interlaced
Scan order : Bottom Field First
Bits/(Pixel*Frame) : 0.293
Stream size : 66.7 MiB (92%)
Writing library : XviD 1.1.2 (UTC 2006-11-01)

Audio
Format : MPEG Audio
Format version : Version 1
Format profile : Layer 3
Codec ID : 55
Codec ID/Hint : MP3
Duration : 4mn 7s
Bit rate mode : Constant
Bit rate : 192 Kbps
Channel(s) : 2 channels
Sampling rate : 48.0 KHz
Resolution : 16 bits
Stream size : 5.68 MiB (8%)
Alignment : Split accross interleaves
Interleave, duration : 40 ms (1.00 video frame)
Interleave, preload duration : 500 ms


Related torrents

Torrent NameAddedSizeSeedLeechHealth
1 Year+ - in Music4.53 MB526
1 Year+ - in Music964.28 KB00
1 Year+ - in Music1.66 MB1611
1 Year+ - in Other5.3 MB00
1 Year+ - in Music31.84 MB00

Comments (0 Comments)




Please login or create a FREE account to post comments

Latest Searches

| shane shane discography | x so and os | m o d godzilla | pov jerk off | bold and the beautiful s30 ep7477 | aelf fen medieval mysteries 1 5 alys clare epub ani7wak | r and b holiday | Lethal Weapon S01E09 HDTV x264 LOLettv | v spanish 1983 | this aint lady gaga 2011 dvdrip |