Quick Browse
Movies
TV shows
Music
Games
Applications
Anime
Other
Facebook
Advertising

Friends
Torrent Download
Movie4u
1337x.to
Torrent Downloads




Verified torrent Johnny English 2 Reborn 2011 Bluray 720p AC3 x264-Themole


    Seeders : 0      Leechers : 0

Trackers List

Tracker NameLast CheckStatusSeedersLeechers
udp://tracker.coppersurfer.tk:801 Year+success00
http://announce.torrentsmd.com:6969/announce1 Year+success00
http://bigfoot1942.sektori.org:6969/announce1 Year+success00
http://tracker.nwps.ws:6969/announce1 Year+success00
http://torrent.gresille.org/announce1 Year+success00
http://tracker.winglai.com/announce1 Year+success00
http://tracker.trackerfix.com/announce1 Year+success00
udp://9.rarbg.com:2710/announce1 Year+success00
udp://open.demonii.com:1337/announce1 Year+success00




Torrent File Content (4 files)


Johnny.English.2.Reborn.2011.Bluray.720p.AC3.x264-Themole
     JE2.nfo -
5.47 KB

     Torrent downloaded from Demonoid.me.txt -
46 bytes

     Johnny.English.2.Reborn.2011.Bluray.720p.AC3.x264-TheMole.jpg -
983.21 KB

     Johnny.English.2.Reborn.2011.Bluray.720p.AC3.x264-Themole.mkv -
1.28 GB



Description



http://www.hotimg.com/direct/mjuRYmC.jpg


[code]

Johnny English Reborn 2011 DVDRiP XViD-Lebo

http://www.imdb.com/title/tt1634122/
Language: English
Format : Matroska
Format version : Version 2
File size : 1.28 GiB
Duration : 1h 41mn
Overall bit rate : 1 806 Kbps
Writing application : Lavf53.8.0
Writing library : Lavf53.8.0

Video
ID : 1
Format : AVC
Format/Info : Advanced Video Codec
Format profile : [email protected]
Format settings, CABAC : Yes
Format settings, ReFrames : 3 frames
Codec ID : V_MPEG4/ISO/AVC
Duration : 1h 41mn
Bit rate : 1 098 Kbps
Width : 1 280 pixels
Height : 720 pixels
Display aspect ratio : 16:9
Frame rate mode : Variable
Frame rate : 23.976 fps
Color space : YUV
Chroma subsampling : 4:2:0
Bit depth : 8 bits
Scan type : Progressive
Bits/(Pixel*Frame) : 0.050
Stream size : 796 MiB (61%)
Language : English
Default : Yes
Forced : No
PART_NUMBER : 0

Audio #1
ID : 2
Format : AC-3
Format/Info : Audio Coding 3
Mode extension : CM (complete main)
Codec ID : A_AC3
Duration : 1h 41mn
Bit rate mode : Constant
Bit rate : 224 Kbps
Channel(s) : 6 channels
Channel positions : Front: L C R, Side: L R, LFE
Sampling rate : 48.0 KHz
Bit depth : 16 bits
Compression mode : Lossy
Delay relative to video : 1mn 5s
Stream size : 162 MiB (12%)
Language : English
Default : Yes
Forced : No
PART_NUMBER : 1

[/code]


http://img860.imageshack.us/img860/475/johnnyenglish2reborn201.jpg



http://www.hotimg.com/direct/ce2Zat5.jpg



http://torrent-stats.info/fd8f/1aeedcc2c.png

Related torrents

Torrent NameAddedSizeSeedLeechHealth
1 Year+ - in Movies4.29 GB114
Verified torrent
1 Year+ - in Movies1.74 GB00
1 Year+ - in Movies699.19 MB00
1 Year+ - in Movies1.95 GB02
Verified torrent
1 Year+ - in Movies1.85 GB10

Comments (0 Comments)




Please login or create a FREE account to post comments

Latest Searches

| She s going to cum | Nurumassage switcheroo valentine | brazzers big new | spread compilation | Doctor X S04E09 | Never back go | Home Den stora resan | arrow season 1 episode 19 2 | Huge cock junkies veronica | Mc afe |