Quick Browse
Movies
TV shows
Music
Games
Applications
Anime
Other
Facebook
Advertising

Friends
Torrent Download
Movie4u
1337x.to
Torrent Downloads




Verified torrent Jonah Hex 2010 CAM XviD - TA - {XtremeTorrents}


    Seeders : 74      Leechers : 25
Hash :9E9D33063D72D7B624CAD58C28149494C1E61AFC
Added :1 Year+ by XtremeTorrentsVerified torrent uploader in Movies
Size :652.07 MB
Stream :WATCH ONLINE @ Movie4u


Jonah Hex 2010 CAM XviD - TA - {XtremeTorrents}
Free and Fast Download with Usenet 300GB+ free







Trackers List

Tracker NameLast CheckStatusSeedersLeechers




Torrent File Content (3 files)


jonah
     Jonah.Hex.2010.CAM.XviD-TA.avi -
637.95 MB

     SAMPLE.avi -
14.11 MB

     Torrent downloaded from Demonoid.com.txt -
47 bytes



Description



Plot: 
The U.S. military makes a scarred bounty hunter with warrants on his own head an offer he cannot refuse: in exchange for his freedom, he must stop a terrorist who is ready to unleash Hell on Earth.

Source : SLUGGER (BIG THANKS)
General
Complete name : Jonah.Hex.2010.CAM.XviD-TA.avi
Format : AVI
Format/Info : Audio Video Interleave
File size : 638 MiB
Duration : 1h 12mn
Overall bit rate : 1 225 Kbps
Writing application : MEncoder Sherpya-SVN-r27811-4.2.5
Writing library : VirtualDub build 32661/release

Video
ID : 0
Format : MPEG-4 Visual
Format profile : [email protected]
Format settings, BVOP : Yes
Format settings, QPel : No
Format settings, GMC : No warppoints
Format settings, Matrix : Default (H.263)
Muxing mode : Packed bitstream
Codec ID : XVID
Codec ID/Hint : XviD
Duration : 1h 12mn
Bit rate : 1 086 Kbps
Width : 640 pixels
Height : 352 pixels
Display aspect ratio : 16:9
Frame rate : 29.970 fps
Resolution : 24 bits
Colorimetry : 4:2:0
Scan type : Progressive
Bits/(Pixel*Frame) : 0.161
Stream size : 565 MiB (89%)
Writing library : XviD 1.2.1 (UTC 2008-12-04)

Audio
ID : 1
Format : MPEG Audio
Format version : Version 1
Format profile : Layer 3
Codec ID : 55
Codec ID/Hint : MP3
Duration : 1h 12mn
Bit rate mode : Constant
Bit rate : 128 Kbps
Channel(s) : 2 channels
Sampling rate : 44.1 KHz
Resolution : 16 bits
Stream size : 66.4 MiB (10%)
Alignment : Split accross interleaves
Interleave, duration : 33 ms (1.00 video frame)
Interleave, preload duration : 500 ms

Related torrents

Torrent NameAddedSizeSeedLeechHealth
1 Year+ - in Movies652.07 MB6524
1 Year+ - in Movies649.55 MB00
1 Year+ - in Movies652.07 MB01
1 Year+ - in Movies744.57 MB55
1 Year+ - in Movies751.28 MB115

Comments (0 Comments)




Please login or create a FREE account to post comments

Latest Searches

| The Game 50 Cent | december 2 2016 | My Scary Girl 2006 | two and a half men season 10 e01 to e08 ctroy | suits s04 hdtv 720p | call of duty black ops 3 full game nosteam | assorted magazines bundle september 5 2015 true pdf | elsie larson | Frankenstein ballet | DjDjDjDjNNNDj |