Quick Browse
Movies
TV shows
Music
Games
Applications
Anime
Other
Facebook
Advertising

Friends
Torrent Download
Movie4u
1337x.to
Torrent Downloads




Jorge Ben Jor-Africa Brasil[EacFlac](Tntvillage)


    Seeders : 4      Leechers : 7
Hash :3A029296E0AC6D96F471C8008EA2CC88AD022F74
Added :1 Year+ by leoneneroVerified torrent uploader in Music - Music
Size :292.88 MB
Stream :WATCH ONLINE @ Movie4u


Jorge Ben Jor-Africa Brasil[EacFlac](Tntvillage)
Free and Fast Download with Usenet 300GB+ free







Trackers List

Tracker NameLast CheckStatusSeedersLeechers




Torrent File Content (13 files)


J0r63 B3n J0r-4fr1c4 8ra51l
     01-Traccia 1.flac -
28.27 MB

     02-Traccia 2.flac -
21.84 MB

     03-Traccia 3.flac -
23.49 MB

     04-Traccia 4.flac -
27.25 MB

     05-Traccia 5.flac -
22.05 MB

     06-Traccia 6.flac -
22.78 MB

     07-Traccia 7.flac -
28.4 MB

     08-Traccia 8.flac -
27.17 MB

     09-Traccia 9.flac -
28.96 MB

     10-Traccia 10.flac -
35.68 MB

     11-Traccia 11.flac -
26.96 MB

     folder.jpg -
19.87 KB

     Jorge Ben - África Brasil.cue -
1.31 KB



Description



http://img6.imageshack.us/img6/1245/ptbr.png


http://img827.imageshack.us/img827/9696/stemmabrasile.gif


http://img198.imageshack.us/img198/2434/progettocover.jpg


http://img29.imageshack.us/img29/6498/jorgebenafricabrasilfro.jpg

http://img194.imageshack.us/img194/6333/jorgebenafricabrasilbac.jpg

http://img51.imageshack.us/img51/9924/jorgebenafricabrasilcd1.gif


Titolo:JORGE BEN JOR: ÁFRICA BRASIL
Lingua: PORTOGHESE
Anno: 21 GENNAIO 1976
Genere:MPB, FUNK, SOUL, SAMBAROCK
Etichetta:PHILIPS
Durata:43:02
BANDA:

Jorge Ben
(guitar, voice)
Dadi
(bass)
Pedrinho
(drums)
Ze Roberto Bertrami
(keyboards)
Luna, Nenem, Gustavo, Joaozinho, Canegal, Doutor, Djalma Correa, Hermes, Ariovaldo, Wilson das Neves
(percussion)
Darcy, Zezinho, Marcio Montarroyos
(piston)
Ze Bigorna, Oberdan
(sax)
Regina, Evinha, Claudinha, Marisa, Waldyr
(choir)


http://img842.imageshack.us/img842/2360/valutazione.gif

http://img98.imageshack.us/img98/9113/progettotracklist.jpg


All tracks written by Jorge Ben

1. "Ponta de Lanca Africano (Umbabarauma)" - 3:52
2. "Hermes Trismegisto Escreveu" - 3:02
3. "O Filosofo" - 3:27 "O Filósofo" – 3:27
4. "Filhos Meus, Tesouro Meu" - 3:53
5. "Plebeu O" - 3:07 "O Plebeu" – 3:07
6. "Taj Mahal" - 3:09 "Taj Mahal" – 3:09
7. " Xica da Silva "- 4:05
8. "A História de Jorge" - 3:49
9. "Camisa 10 Gávea da" - 4:04
10. "Cavaleiro fare Imaculado Cavalo" - 4:46
11. "África Brasil ( Zumbi ) "- 3:47



http://img210.imageshack.us/img210/734/progettorecensione.jpg

Siamo a metà anni 70, tanto il Brasile quanto Jorge Ben Jor girarono pagina.
I terribile anni della dittatura sembravano essere alla fine, quasi alla fine, il soul, il funk e le discoteche guadagnavano terreno sopra il rock ed il pop, Jorge si interessava sempre più di alchimia, delle sue radici africane e dalla chitarra elettrica.
Una miscela altamnete pericolosa, che nelle mani di atri sarebbe potuta essere una catastrofe, fortunatamente Jorge si sentiva pienamente a suo agio nei poteri della sua alchimia. Un album straordinario, dove le esplorazioni di Jorge con la chitarra elettrica, sempre ritmica, si scontrano con gli arrangiamenti perfetti di José Roberto Bertrami.


http://img121.imageshack.us/img121/5530/progettodescrizione.jpg

JORGE BEM JOR
http://img857.imageshack.us/img857/3884/jorgeben.gif

Jorge Ben Jor (Rio de Janeiro, 22 marzo 1942)
è un musicista e compositore brasiliano.br /br /Il suo stile mescola ritmi tropicali, samba, bossa nova e funk, con
testi che uniscono satira, humor e talvolta elementi esoterici. br /Curiosità:br /Jorge Duilio Lima Menezes firma le
sue prime opere col nome d'arte Jorge Ben fino al 1989, quando lo modifica in Jorge Ben Jor (scritto anche BenJor) per
frenare l'incidente legale che attribuisce parte dei suoi diritti editoriali al chitarrista statunitense George
Benson.br /br /Nel 1964 pubblica il suo primo disco

lossless FLAC

Exact Audio Copy V1.0 beta 1 from 15. November 2010

EAC extraction logfile from 24. April 2011, 21:51

Jorge Ben / África Brasil

Used drive : HL-DT-STDVDRAM GSA-T40N Adapter: 0 ID: 0

Read mode : Secure
Utilize accurate stream : Yes
Defeat audio cache : No
Make use of C2 pointers : Yes

Read offset correction : 667
Overread into Lead-In and Lead-Out : No
Fill up missing offset samples with silence : Yes
Delete leading and trailing silent blocks : No
Null samples used in CRC calculations : No
Used interface : Native Win32 interface for Win NT & 2000

Used output format : User Defined Encoder
Selected bitrate : 768 kBit/s
Quality : High
Add ID3 tag : No
Command line compressor : c:UsersleomarcoContactsDesktopExact Audio CopyFLACFLAC.EXE
Additional command line options : -6 -V -T "ARTIST=%a" -T "TITLE=%t" -T "ALBUM=%g" -T "DATE=%y" -T "TRACKNUMBER=%n" -T "GENRE=%m" -T "COMMENT=%e" %j--picture="%i"%j %s -o %d


TOC of the extracted CD

Track | Start | Length | Start sector | End sector
---------------------------------------------------------
1 | 0:00.00 | 3:49.16 | 0 | 17190
2 | 3:49.16 | 3:01.47 | 17191 | 30812
3 | 6:50.63 | 3:25.08 | 30813 | 46195
4 | 10:15.71 | 3:50.26 | 46196 | 63471
5 | 14:06.22 | 3:04.49 | 63472 | 77320
6 | 17:10.71 | 3:06.03 | 77321 | 91273
7 | 20:16.74 | 4:02.45 | 91274 | 109468
8 | 24:19.44 | 3:43.68 | 109469 | 126261
9 | 28:03.37 | 4:03.16 | 126262 | 144502
10 | 32:06.53 | 4:41.26 | 144503 | 165603
11 | 36:48.04 | 3:44.22 | 165604 | 182425


Range status and errors

Selected range

Filename C:UsersleomarcoContactsDesktopJorge Ben - África Brasil.Flac

Peak level 100.0 %
Extraction speed 1.1 X
Range quality 100.0 %
Test CRC 32B26D23
Copy CRC 32B26D23
Copy OK

No errors occurred


AccurateRip summary

Track 1 accurately ripped (confidence 1) [EFB0B604]
Track 2 accurately ripped (confidence 1) [93BBA295]
Track 3 accurately ripped (confidence 1) [B9A1FC6F]
Track 4 accurately ripped (confidence 1) [ABE870BE]
Track 5 accurately ripped (confidence 1) [10A89DC5]
Track 6 accurately ripped (confidence 1) [2AE45652]
Track 7 accurately ripped (confidence 1) [B7956753]
Track 8 accurately ripped (confidence 1) [6FFF7411]
Track 9 accurately ripped (confidence 1) [E8F606A8]
Track 10 accurately ripped (confidence 1) [F8F707A9]
Track 11 accurately ripped (confidence 1) [G8L543B7]

End of status report

==== Log checksum 47C4AC2A81C2320D5B86834ED59F5B58414B48B76DE0E3285115BCA25AC58232 ====


http://img521.imageshack.us/img521/763/progettobandaeseed.jpg


Per i primi 10: 24 su 24: 50/60 Kb/s

Tutti i miei torrent sono RESEED ON DEMAIND
è sufficiente postare nella release ed io provvederò.


http://img821.imageshack.us/img821/5126/ecosos1.gif


http://img683.imageshack.us/img683/9979/47785678443567990446.gif



Related torrents

Torrent NameAddedSizeSeedLeechHealth
1 Year+ - in Music130.93 MB00
1 Year+ - in Music55.68 MB00
1 Year+ - in Music61.49 MB00
1 Year+ - in Music268.74 MB00
1 Year+ - in Other951.2 MB47

Comments (0 Comments)




Please login or create a FREE account to post comments

Latest Searches

| ATKPremium 14 06 05 Ember Stone Toys 1080p MP4 KTR | weekend dream | The magic off | pupo the best | Clips4Sale BareBackStudios Cory Chase | 30 soundtrack | The D Train Una notte da matricole 2015 BRrip Italian English | xxx asian 2016 | Lesbian Lipstick Seduction 3 | ass gag |