Quick Browse
Movies
TV shows
Music
Games
Applications
Anime
Other
Facebook
Advertising

Friends
Torrent Download
Movie4u
1337x.to
Torrent Downloads




Verified torrent Journey 2 The Mysterious Island 2012 CAM READNFO XViD-26K


    Seeders : 0      Leechers : 0

Trackers List

Tracker NameLast CheckStatusSeedersLeechers




Torrent File Content (7 files)


Journey 2 The Mysterious Island 2012 CAM READNFO XViD-26K
     HDSceneRG.txt -
115 bytes

     Journey 2 The Mysterious Island 2012 CAM READNFO XViD-26K.avi -
1.02 GB

     Journey 2 The Mysterious Island 2012 CAM READNFO XViD-26K.nfo -
4.39 KB

     Torrent downloaded from Demonoid.me.txt -
46 bytes

     att-networks.com.txt -
39 bytes

     sample.avi -
8 MB

     sceneunderground.org.txt -
77 bytes



Description



http://img138.imageshack.us/img138/2692/journeyv.jpg

[code]
Journey 2 The Mysterious Island 2012 CAM READNFO XViD-26K

Imdb:
http://www.imdb.com/title/tt1397514/

Plot:
Sean Anderson partners with his mom's boyfriend on a mission to find his grandfather, who is thought to be missing on a mythical island.

Sources:
VIDEO- THNXS M8!
AUDIO-THNXS M8!

Notes:

FIRST OF ALL A MESSAGE TO THE LEAKER....
"GO AND SUCK YOUR SELF YOU TINY NOOB.." IF YOU ARE READING THIS...NO NEED TO LEAK THIS ON A SITE WHICH I WILL NOT MENTION...

THIS IS HERE WAY WAY EARLY BECAUSE IT WAS LEAKED.....NOT HAPPY AT ALL... PROBABLY THE LAST CAM I DO FOR A WHILE...

READNFO well this is why>>>

the source was stretched so i fixed this.. and opted to set the resolution to 720x320 looks much nicer!!
on to the video . it was very dark so added bit of brightness and sauturation and other filters to it to make it look nice!
the audio is given by a special friend of mine .. and it was very noisy!!.. so ran a few noise filters on it, now it sounds nearly perfect just the occasional laughter from the cinema and the occasional loud hiss at a few places which only lasts for 2-3 secs!
will do a v2 once i get new and better audio.. until then here it is..with all that been said bottom line not bad for a first cam.. so like i always say... take it or leave it!

enjoy ;


Greetz:
Xtreme Encode|FYA|ILLUMANTI|CM8|RX|VISION|HDSCENE|NIGHTMAREZ|xTriLL|DTRG|CRYS|REMIXHD|BIDA|RX|REFILL|INSPiRAL|SIC|ZOMBIESZ|HOPE|Anonymous|GooN
To all the people who have helped me :P you know who you are

Anything to offer email us @: [email protected]

Video
ID : 0
Format : MPEG-4 Visual
Format profile : Advanced [email protected]
Format settings, BVOP : 2
Format settings, QPel : No
Format settings, GMC : No warppoints
Format settings, Matrix : Default (H.263)
Muxing mode : Packed bitstream
Codec ID : XVID
Codec ID/Hint : XviD
Duration : 1h 29mn
Bit rate : 1 500 Kbps
Width : 720 pixels
Height : 320 pixels
Display aspect ratio : 2.25:1
Frame rate : 29.970 fps
Color space : YUV
Chroma subsampling : 4:2:0
Bit depth : 8 bits
Scan type : Progressive
Compression mode : Lossy
Bits/(Pixel*Frame) : 0.217
Stream size : 957 MiB (92%)
Writing library : XviD 1.1.2 (UTC 2006-11-01)

Audio
ID : 1
Format : MPEG Audio
Format version : Version 1
Format profile : Layer 3
Codec ID : 55
Codec ID/Hint : MP3
Duration : 1h 29mn
Bit rate mode : Constant
Bit rate : 128 Kbps
Channel(s) : 2 channels
Sampling rate : 44.1 KHz
Compression mode : Lossy
Delay relative to video : 1s 500ms
Stream size : 81.7 MiB (8%)
Alignment : Split accross interleaves
Interleave, duration : 16367 ms (490.53 video frames)

[/code]
Screens:
http://img560.imageshack.us/img560/2824/vlcsnap2012020620h16m08.png

http://img638.imageshack.us/img638/7319/vlcsnap2012020620h16m14.png

http://img803.imageshack.us/img803/6489/vlcsnap2012020622h48m39.png

http://img687.imageshack.us/img687/6494/vlcsnap2012020622h48m43.png

http://img195.imageshack.us/img195/2871/vlcsnap2012020622h48m50.png

http://img593.imageshack.us/img593/6024/vlcsnap2012020622h48m57.png

http://img513.imageshack.us/img513/8033/vlcsnap2012020622h50m01.png

http://img689.imageshack.us/img689/6361/vlcsnap2012020622h50m35.png


Alternative screens:
http://dippic.com/mskymr1gc6fd
http://imgdepot.org/show/20120206/2/381613_vlcsnap_2012_02_06_22h48m39s116.png
http://www.imageporter.com/7ifb2jrc0y5j/vlcsnap-2012-02-06-22h50m35s252.png
http://www.hotimg.com/image/3WWNDZQ
http://img851.imageshack.us/img851/5503/26ks.jpg

Thank you smallz for banner!

Related torrents

Torrent NameAddedSizeSeedLeechHealth
1 Year+ - in Movies899.17 MB00
1 Year+ - in Movies703.54 MB00
1 Year+ - in Movies1.03 GB775
1 Year+ - in Movies1.3 GB00
1 Year+ - in Movies1.25 GB00

Comments (0 Comments)




Please login or create a FREE account to post comments

Latest Searches

| pool big tits xxx | hold on hold on baby | judge judy s19e49 | The Walking Dead S07E07 1080p WEB DL x264 FUMettv | Shooter S01E01 HDTV x264 FLEET 720p FLEET | judge judy s19e48 | collection of kiss | sun ra sun myth | judge judy s19e47 | The Infinite Breath |